Торрент файл
скачать торрент магнет ссылка Добавлен: 09 окт 2017, 20:36
Размер: 746.33 МБ
Сидеров: 70
Личеров: 15
Статус: (salma3)
Автор

СообщениеДобавлено: 09 окт 2017, 20:36 

Не в сети
Супермодератор
Аватара пользователя
Дата регистрации:
15 фев 2012, 16:44
Возраст: 28
Спасибо: 6642 / 2146
Сообщения: 45738
Год выхода: 2003
Жанр: фантастика, боевик, триллер
Режиссер: Джон Эмиел

В ролях: Аарон Экхарт, Хилари Суэнк, Делрой Линдо, Стэнли Туччи, DJ Куаллс, Ричард Дженкинс, Чеки Карио, Брюс Гринвуд, Элфри Вудард, Кристофер Шайер

О фильме :
Герой картины, геофизик Джош Кийз, сделал шокирующее открытие: ядро земли перестало вращаться. Электромагнитное поле нашей планеты разрушается, и скоро Земля погибнет! Есть лишь одна надежда: Кийз с командой первоклассных ученых отправится в экспедицию к остановившемуся ядру на уникальном термостойком корабле, чтобы… взорвать ядерный заряд. Этот взрыв должен будет заставить вращаться злополучное ядро, и человечество будет спасено! Путешествие к центру Земли начинается!



Выпущено: Paramount Pictures
Продолжительность: 02:14:58
Перевод: Дублированный (лицензия)

Файл
Формат: MKV
Качество: HDRip-AVC
Видео: MPEG-4 AVC, 720x308, ~ 695 Кбит/с
Аудио: AAC-LC, 2 ch, ~76 Кбит/с
Субтитры: Русские, Английские

Общее
Уникальный идентификатор : 186846520442412325767505057025898961562 (0x8C9154B40EBC6F65848E3B3C3DC1DA9A)
Полное имя : D:MOVIESThe Core.2003.ExKinoRay.mkv
Формат : Matroska
Версия формата : Version 4 / Version 2
Размер файла : 746 Мбайт
Продолжительность : 2 ч. 14 м.
Общий поток : 773 Кбит/сек
Дата кодирования : UTC 2017-10-09 15:24:41
Программа кодирования : mkvmerge v15.0.0 ('Duel with the Devil') 64-bit
Библиотека кодирования : libebml v1.3.5 + libmatroska v1.4.5

Видео
Идентификатор : 1
Формат : AVC
Формат/Информация : Advanced Video Codec
Профиль формата : High@L4.1
Параметр CABAC формата : Да
Параметр RefFrames формата : 10 кадров
Идентификатор кодека : V_MPEG4/ISO/AVC
Продолжительность : 2 ч. 14 м.
Битрейт : 695 Кбит/сек
Ширина : 720 пикселей
Высота : 308 пикселей
Соотношение сторон : 2,35:1
Режим частоты кадров : Постоянный
Частота кадров : 23,976 (24000/1001) кадра/сек
Цветовое пространство : YUV
Субдискретизация насыщенности : 4:2:0
Битовая глубина : 8 бит
Тип развёртки : Прогрессивная
Бит/(Пиксели*Кадры) : 0.131
Размер потока : 671 Мбайт (90%)
Библиотека кодирования : x264 core 152 r2851kMod ba24899
Настройки программы : cabac=1 / ref=10 / deblock=1:-3:-2 / analyse=0x3:0x113 / me=umh / subme=11 / psy=1 / fade_compensate=0.00 / psy_rd=1.00:0.15 / mixed_ref=1 / me_range=32 / chroma_me=1 / trellis=2 / 8x8dct=1 / cqm=0 / deadzone=21,11 / fast_pskip=0 / chroma_qp_offset=-3 / threads=6 / lookahead_threads=1 / sliced_threads=0 / nr=0 / decimate=0 / interlaced=0 / bluray_compat=0 / constrained_intra=0 / bframes=10 / b_pyramid=2 / b_adapt=2 / b_bias=0 / direct=3 / weightb=1 / open_gop=0 / weightp=2 / keyint=240 / keyint_min=23 / scenecut=40 / intra_refresh=0 / rc_lookahead=40 / rc=2pass / mbtree=1 / bitrate=695 / ratetol=1.0 / qcomp=0.60 / qpmin=0 / qpmax=69 / qpstep=4 / cplxblur=20.0 / qblur=0.5 / vbv_maxrate=50000 / vbv_bufsize=62500 / nal_hrd=none / filler=0 / ip_ratio=1.40 / aq=3:1.00
Default : Да
Forced : Нет

Аудио
Идентификатор : 2
Формат : AAC
Формат/Информация : Advanced Audio Codec
Профиль формата : LC
Идентификатор кодека : A_AAC
Продолжительность : 2 ч. 14 м.
Битрейт : 76,0 Кбит/сек
Каналы : 2 канала
Расположение каналов : Front: L R
Частота : 48,0 КГц
Частота кадров : 46,875 кадров/сек (1024 SPF)
Метод сжатия : С потерями
Задержка видео : 9 мс.
Размер потока : 73,4 Мбайт (10%)
Язык : Russian
Default : Да
Forced : Нет

Текст #1
Идентификатор : 3
Формат : UTF-8
Идентификатор кодека : S_TEXT/UTF8
Идентификатор кодека/Информация : UTF-8 Plain Text
Продолжительность : 2 ч. 5 м.
Битрейт : 89 бит/сек
ElementCount : 1170
Размер потока : 81,8 Кбайт (0%)
Заголовок : русские
Язык : Russian
Default : Нет
Forced : Нет

Текст #2
Идентификатор : 4
Формат : UTF-8
Идентификатор кодека : S_TEXT/UTF8
Идентификатор кодека/Информация : UTF-8 Plain Text
Продолжительность : 2 ч. 14 м.
Битрейт : 62 бит/сек
ElementCount : 1691
Размер потока : 61,7 Кбайт (0%)
Заголовок : английские (для слабослышащих)
Язык : English
Default : Нет
Forced : Нет

Меню
00:00:00.000 : :Chapter 01
00:07:12.807 : :Chapter 02
00:11:09.001 : :Chapter 03
00:18:15.260 : :Chapter 04
00:27:57.342 : :Chapter 05
00:32:53.971 : :Chapter 06
00:35:58.489 : :Chapter 07
00:40:12.993 : :Chapter 08
00:47:26.760 : :Chapter 09
00:50:08.463 : :Chapter 10
01:01:19.592 : :Chapter 11
01:11:50.055 : :Chapter 12
01:22:25.899 : :Chapter 13
01:29:28.196 : :Chapter 14
01:33:43.033 : :Chapter 15
01:39:00.643 : :Chapter 16
01:44:38.354 : :Chapter 17
01:52:21.109 : :Chapter 18
01:58:07.246 : :Chapter 19
02:03:58.013 : :Chapter 20
02:14:57.506 : :Chapter 21



Релиз от:


_________________
Проголосуй за трекер Открытый торрент трекер - RUS-MEDIA.ORG

Проголосуй Открытый торрент трекер - RUS-MEDIA.ORG



реклама партнёра


Вернуться к началу
 Профиль Отправить личное сообщение  
 
   Похожие торренты   Автор   Торрент   Размер 
В этой теме нет новых непрочитанных сообщений. Во имя мести / Out For a Kill [Боевик, триллер, криминал, 2003] HDRip, Mvo

salma3

13 | 4

1.46 ГБ

В этой теме нет новых непрочитанных сообщений. Матрица: Перезагрузка / The Matrix: Reloaded [Фантастика, боевик, триллер, 2003] BDRemux 1080p, Dub

salma3

9 | 3

30.87 ГБ

В этой теме нет новых непрочитанных сообщений. Матрица: Революция / The Matrix: Revolutions [Фантастика, боевик, триллер, 2003] BDRemux 1080p, Dub

salma3

8 | 2

24.85 ГБ

В этой теме нет новых непрочитанных сообщений. Терминатор 3: Восстание машин / Terminator 3: Rise of the Machines [фантастика, боевик, триллер, 2003] BDRip-HEVC 1080p, Dub

salma3

53 | 28

4.28 ГБ

В этой теме нет новых непрочитанных сообщений. Жажда / Thirst [фантастика, боевик, триллер, 2015] HDRip, Avo

salma3

95 | 8

1.27 ГБ

В этой теме нет новых непрочитанных сообщений. Разрушитель / Demolition Man [фантастика, боевик, триллер, 1993] HDRip-AVC, Dub

salma3

17 | 4

747.23 МБ

В этой теме нет новых непрочитанных сообщений. Репликант / Replicant [фантастика, боевик, триллер, 2001] HDRip, Avo

salma3

27 | 2

1.46 ГБ


Начать новую тему Ответить на тему  [ 1 сообщение ] 




Для Мосгорсуда, Роскомнадзора и рекламодателей:: mosgorsud-torrent[собачка]yandex.ru