Торрент файл
скачать торрент магнет ссылка Добавлен: 09 окт 2017, 15:10
Размер: 3.3 ГБ
Сидеров: 23
Личеров: 8
Статус: (salma3)
Автор

СообщениеДобавлено: 09 окт 2017, 15:10 

Не в сети
Супермодератор
Аватара пользователя
Дата регистрации:
15 фев 2012, 16:44
Возраст: 28
Спасибо: 7060 / 2147
Сообщения: 59074
Год выхода: 2004
Жанр: Комедия, семейный
Режиссер: Джо Рот

В ролях: Тим Аллен, Джейми Ли Кёртис, Дэн Эйкройд, Элизабет Франц, Эрик Пер Салливан, Чич Марин, Джейк Бьюзи, Остин Пендлтон, Том Постон, Джули Гонсало, Рене Лаван, Кэролайн Ри, Фелисити Хаффмен, Патрик Брин, Джон Шорт, Бонита Фридериси, Дэвид Хорнсби, Кевин Чэмберлин, Линдон Смит, Райан Пфенинг, Марк Кристофер Лоуренс

О фильме:
Экранизация одноименного романа Джона Гришема. Лютера и его жену Нору просто достало Рождество. Вся эта суета, эти елки, подарки и хлопушки. В этот год они твердо решают «забить» на него и смотаться в круиз по Карибам, позабыв про идиотские колядки под окнами и трескучие фейерверки соседей. Но не тут-то было! Попытка убежать от Рождества вызывает такие последствия, какие им даже не снились…



Страна: США
Продолжительность: 01:38:52
Перевод: Дублированный

Файл
Кодек: h.264
Качество: WEB-DLRip AVC
Видео: MPEG-4 AVC, 3500 Кбит/с, 1024x432, 23,976 кадр/с
Звук:
Русский (AC3, 6 ch, 448 Кбит/с) / Дубляж, R5
Украинский (AC3, 6 ch, 384 Кбит/с) / Двухголосый закадровый, К1
Английский (AC3, 6 ch, 448 Кбит/с)
Субтитры: Русские, английские

Семпл

За источник спасибо MGK
Главы были взяты с DVD.
За украинскую дорожку спасибо сайту Hurtom
За русские субтитры спасибо сайту Notabenoid
General
Unique ID : 234177157127513832634578449250384062473 (0xB02CE142758780B98E5DD2215863A809)
Complete name : D:uTorrentRozhdestvo.s.neudachnikami.2004.WEB-DLRip.AVC.MediaClub.mkv
Format : Matroska
Format version : Version 4 / Version 2
File size : 3.30 GiB
Duration : 1 h 38 min
Overall bit rate : 4 781 kb/s
Encoded date : UTC 2017-10-09 09:18:47 / UTC 2017-10-06T12:26:57Z
Writing application : mkvmerge v16.0.0 ('Protest') 64-bit
Writing library : libebml v1.3.5 + libmatroska v1.4.8 / Lavf57.7.2

Video
ID : 1
Format : AVC
Format/Info : Advanced Video Codec
Format profile : High@L4.1
Format settings, CABAC : Yes
Format settings, ReFrames : 14 frames
Codec ID : V_MPEG4/ISO/AVC
Duration : 1 h 38 min
Bit rate : 3 500 kb/s
Width : 1 024 pixels
Height : 432 pixels
Display aspect ratio : 2.40:1
Frame rate mode : Constant
Frame rate : 23.976 (24000/1001) FPS
Color space : YUV
Chroma subsampling : 4:2:0
Bit depth : 8 bits
Scan type : Progressive
Bits/(Pixel*Frame) : 0.330
Stream size : 2.35 GiB (71%)
Title : WEB-DLRip by Silverok
Writing library : x264 core 148 r2708 86b7198
Encoding settings : cabac=1 / ref=14 / deblock=1:-3:-3 / analyse=0x3:0x113 / me=umh / subme=11 / psy=1 / psy_rd=1.00:0.00 / mixed_ref=1 / me_range=24 / chroma_me=1 / trellis=2 / 8x8dct=1 / cqm=0 / deadzone=21,11 / fast_pskip=1 / chroma_qp_offset=-2 / threads=12 / lookahead_threads=1 / sliced_threads=0 / nr=0 / decimate=0 / interlaced=0 / bluray_compat=0 / constrained_intra=0 / bframes=16 / b_pyramid=2 / b_adapt=1 / b_bias=0 / direct=1 / weightb=1 / open_gop=0 / weightp=2 / keyint=240 / keyint_min=24 / scenecut=40 / intra_refresh=0 / rc_lookahead=40 / rc=2pass / mbtree=1 / bitrate=3500 / ratetol=1.0 / qcomp=0.60 / qpmin=0 / qpmax=69 / qpstep=4 / cplxblur=20.0 / qblur=0.5 / vbv_maxrate=62500 / vbv_bufsize=78125 / nal_hrd=none / filler=0 / ip_ratio=1.40 / aq=1:1.00
Default : Yes
Forced : No
Color range : Limited
Color primaries : BT.709
Transfer characteristics : BT.709
Matrix coefficients : BT.709
Statistics Tags Issue : mkvmerge v16.0.0 ('Protest') 64-bit 2017-10-09 09:18:47 / mkvmerge v16.0.0 ('Protest') 64-bit 2017-10-09 09:18:47 / UTC 2017-10-06T12:26:57Z
FromStats_BitRate : 3498728
FromStats_Duration : 01:38:52.260000000
FromStats_FrameCount : 142232
FromStats_StreamSize : 2594421181

Audio #1
ID : 2
Format : AC-3
Format/Info : Audio Coding 3
Format settings, Endianness : Big
Codec ID : A_AC3
Duration : 1 h 38 min
Bit rate mode : Constant
Bit rate : 448 kb/s
Channel(s) : 6 channels
Channel positions : Front: L C R, Side: L R, LFE
Sampling rate : 48.0 kHz
Frame rate : 31.250 FPS (1536 spf)
Bit depth : 16 bits
Compression mode : Lossy
Stream size : 317 MiB (9%)
Title : Дубляж, R5
Language : Russian
Service kind : Complete Main
Default : Yes
Forced : No
Statistics Tags Issue : mkvmerge v16.0.0 ('Protest') 64-bit 2017-10-09 09:18:47 / mkvmerge v16.0.0 ('Protest') 64-bit 2017-10-09 09:18:47 / UTC 2017-10-06T12:26:57Z
FromStats_BitRate : 448000
FromStats_Duration : 01:38:52.288000000
FromStats_FrameCount : 185384
FromStats_StreamSize : 332208128

Audio #2
ID : 3
Format : AC-3
Format/Info : Audio Coding 3
Format settings, Endianness : Big
Codec ID : A_AC3
Duration : 1 h 38 min
Bit rate mode : Constant
Bit rate : 384 kb/s
Channel(s) : 6 channels
Channel positions : Front: L C R, Side: L R, LFE
Sampling rate : 48.0 kHz
Frame rate : 31.250 FPS (1536 spf)
Bit depth : 16 bits
Compression mode : Lossy
Stream size : 272 MiB (8%)
Title : Двухголосый закадровый, К1
Language : Ukrainian
Service kind : Complete Main
Default : No
Forced : No
Statistics Tags Issue : mkvmerge v16.0.0 ('Protest') 64-bit 2017-10-09 09:18:47 / mkvmerge v16.0.0 ('Protest') 64-bit 2017-10-09 09:18:47 / UTC 2017-10-06T12:26:57Z
FromStats_BitRate : 384000
FromStats_Duration : 01:38:50.848000000
FromStats_FrameCount : 185339
FromStats_StreamSize : 284680704

Audio #3
ID : 4
Format : AC-3
Format/Info : Audio Coding 3
Format settings, Endianness : Big
Codec ID : A_AC3
Duration : 1 h 38 min
Bit rate mode : Constant
Bit rate : 448 kb/s
Channel(s) : 6 channels
Channel positions : Front: L C R, Side: L R, LFE
Sampling rate : 48.0 kHz
Frame rate : 31.250 FPS (1536 spf)
Bit depth : 16 bits
Compression mode : Lossy
Delay relative to video : -5 ms
Stream size : 317 MiB (9%)
Language : English
Service kind : Complete Main
Default : No
Forced : No
Statistics Tags Issue : mkvmerge v16.0.0 ('Protest') 64-bit 2017-10-09 09:18:47 / mkvmerge v16.0.0 ('Protest') 64-bit 2017-10-09 09:18:47 / UTC 2017-10-06T12:26:57Z
FromStats_BitRate : 448000
FromStats_Duration : 01:38:52.192000000
FromStats_FrameCount : 185381
FromStats_StreamSize : 332202752

Text #1
ID : 5
Format : ASS
Codec ID : S_TEXT/ASS
Codec ID/Info : Advanced Sub Station Alpha
Compression mode : Lossless
Title : Notabenoid
Language : Russian
Default : No
Forced : No
Statistics Tags Issue : mkvmerge v16.0.0 ('Protest') 64-bit 2017-10-09 09:18:47 / mkvmerge v16.0.0 ('Protest') 64-bit 2017-10-09 09:18:47 / UTC 2017-10-06T12:26:57Z
FromStats_BitRate : 146
FromStats_Duration : 01:32:07.150000000
FromStats_FrameCount : 1148
FromStats_StreamSize : 101274

Text #2
ID : 6
Format : ASS
Codec ID : S_TEXT/ASS
Codec ID/Info : Advanced Sub Station Alpha
Compression mode : Lossless
Language : English
Default : No
Forced : No
Statistics Tags Issue : mkvmerge v16.0.0 ('Protest') 64-bit 2017-10-09 09:18:47 / mkvmerge v16.0.0 ('Protest') 64-bit 2017-10-09 09:18:47 / UTC 2017-10-06T12:26:57Z
FromStats_BitRate : 98
FromStats_Duration : 01:32:07.170000000
FromStats_FrameCount : 1148
FromStats_StreamSize : 68036

Menu
00:00:00.000 : :Start
00:03:14.027 : :Couldn't Get Any Wetter
00:06:44.154 : :Luther's Big Idea
00:11:30.190 : :"When Do We Leave?"
00:12:59.195 : :Skipping Christmas
00:16:19.061 : :Mr. Frohmeyer
00:20:06.163 : :Neighbor Problems
00:22:46.156 : :"Give Us Frosty!"
00:26:41.141 : :Tans Forever
00:29:24.304 : :Mystery Photographer
00:32:32.075 : :Some Christmas Cheer
00:37:06.141 : :Botox
00:41:35.243 : :More Holiday Shocks
00:45:57.213 : :Christmas Tree
00:48:59.228 : :Lost His Mind
00:51:02.101 : :Ham
00:54:30.184 : :Spike's Rescue
00:57:04.171 : :The End of Frosty
01:01:57.172 : :Party at the Krank's
01:04:37.123 : :Another Change of Plans
01:06:31.029 : :Stalling
01:10:53.082 : :Break-In
01:14:18.204 : :"They're Here!"
01:17:04.036 : :Family & Friends
01:19:58.127 : :Holiday Guilt & Shame
01:22:27.192 : :Walt & Bev
01:24:37.114 : :Christmas Offering
01:29:10.136 : :Marty's Secret


Релиз от: | Silverok


_________________
Проголосуй за трекер Открытый торрент трекер - RUS-MEDIA.ORG

Проголосуй Открытый торрент трекер - RUS-MEDIA.ORG


Вернуться к началу
 Профиль Отправить личное сообщение  
 
   Похожие торренты   Автор   Торрент   Размер 
В этой теме нет новых непрочитанных сообщений. Рождество с неудачниками / Christmas with the Kranks [Комедия, семейный, 2004] WEB-DLRip 720p, Dub

salma3

14 | 3

8.79 ГБ

В этой теме нет новых непрочитанных сообщений. Микки: И снова под Рождество / Mickey's Twice Upon a Christmas [Мультфильм, фэнтези, комедия, 2004] WEB-DLRip-AVC, Dub

salma3

177 | 32

746.55 МБ

В этой теме нет новых непрочитанных сообщений. Корона на Рождество / Crown for Christmas [Комедия, мелодрама, семейный, 2015] WEB-DLRip, Mvo [iTunes]

salma3

27 | 9

744.4 МБ

В этой теме нет новых непрочитанных сообщений. Королевское Рождество / A Royal Christmas [Комедия, мелодрама, семейный, 2014] WEB-DLRip, Mvo [iTunes]

salma3

433 | 30

1.46 ГБ

В этой теме нет новых непрочитанных сообщений. Золотое Рождество / A Golden Christmas [мелодрама, комедия, семейный, 2009] HDRip, Dvo

salma3

56 | 8

1.45 ГБ

В этой теме нет новых непрочитанных сообщений. Как раз под Рождество / Just in Time for Christmas [Комедия, мелодрама, 2015] WEB-DLRip, Mvo [iTunes]

salma3

1440 | 116

1.46 ГБ

В этой теме нет новых непрочитанных сообщений. Рождество Мэйерсов / Almost Christmas [Драма, комедия, 2016] WEB-DLRip 720p, Dvo

salma3

95 | 26

3.22 ГБ


Начать новую тему Ответить на тему  [ 1 сообщение ] 




Для Мосгорсуда, Роскомнадзора и рекламодателей:: mosgorsud-torrent[собачка]yandex.ru
cron