Торрент файл
скачать торрент магнет ссылка Добавлен: 09 окт 2017, 03:30
Размер: 1.46 ГБ
Сидеров: 23
Личеров: 7
Статус: (salma3)
Автор

СообщениеДобавлено: 09 окт 2017, 03:30 

В сети
Супермодератор
Аватара пользователя
Дата регистрации:
15 фев 2012, 16:44
Возраст: 29
Спасибо: 7377 / 2147
Сообщения: 75969
Год выпуска: 1986
Жанр: ужасы, фантастика, боевик
Режиссер:Джеймс Кэмерон

В ролях:Сигурни Уивер, Майкл Бин , Кэрри Хенн, Пол Райзер, Лэнс Хенриксен, Билл Пэкстон, Дженетт Голдстин, Уильям Хоуп, Эл Мэтьюз, Марк Ролстон

Описание:
Чужой — совершенный организм. Идеальная машина для убийства, чье физическое превосходство сочетается с его феноменальной жаждой уничтожения. Офицер Элен Рипли и команда космического корабля Ностромо один раз уже встретилась с такой тварью. В живых осталась только Элен. Капсула с Элен найдена спасателями после многих лет блуждания в космосе. Ей сообщают, что планета L.V. 426 колонизирована, и ей придется вернуться туда, где начался ее кошмар, ибо связь с колонистами прервалась. И вот в составе группы космического десанта Рипли отправляется на проклятую планету. Но теперь их там поджидает не один Чужой, а тысячи. Кто сможет выжить в этой войне: чудовища, способные только убивать, или люди, способные мыслить?



Выпущено: США, Великобритания
Продолжительность: 02:34:26
Перевод:Профессиональный (полное дублирование)

Качество:BDRip
Видео: 656x352 (1.86:1), 23.976 fps, XviD build 73 ~1215 kbps avg, 0.22 bit/pixel
Аудио: 48 kHz, MPEG Layer 3, 2 ch, ~128.00 kbps avg

Код:
Код:
General
Complete name                            : D:\Chuzhie_1986_BDRip_[Special_Edition]_by_Dalemake.avi
Format                                   : AVI
Format/Info                              : Audio Video Interleave
File size                                : 1.46 GiB
Duration                                 : 2h 34mn
Overall bit rate                         : 1 353 Kbps
Writing application                      : VirtualDubMod 1.5.10.3 | www.virtualdub-fr.org || (build 2550/release)
Writing library                          : VirtualDubMod build 2550/release
Video
ID                                       : 0
Format                                   : MPEG-4 Visual
Format profile                           : Advanced Simple@L5
Format settings, BVOP                    : 1
Format settings, QPel                    : No
Format settings, GMC                     : No warppoints
Format settings, Matrix                  : Custom
Codec ID                                 : XVID
Codec ID/Hint                            : XviD
Duration                                 : 2h 34mn
Bit rate                                 : 1 216 Kbps
Width                                    : 656 pixels
Height                                   : 352 pixels
Display aspect ratio                     : 1.85:1
Frame rate                               : 23.976 fps
Color space                              : YUV
Chroma subsampling                       : 4:2:0
Bit depth                                : 8 bits
Scan type                                : Progressive
Compression mode                         : Lossy
Bits/(Pixel*Frame)                       : 0.220
Stream size                              : 1.31 GiB (90%)
Writing library                          : XviD 73
Audio
ID                                       : 1
Format                                   : MPEG Audio
Format version                           : Version 1
Format profile                           : Layer 3
Codec ID                                 : 55
Codec ID/Hint                            : MP3
Duration                                 : 2h 34mn
Bit rate mode                            : Constant
Bit rate                                 : 128 Kbps
Channel(s)                               : 2 channels
Sampling rate                            : 48.0 KHz
Compression mode                         : Lossy
Stream size                              : 141 MiB (9%)
Alignment                                : Aligned on interleaves
Interleave, duration                     : 42 ms (1.00 video frame)
Interleave, preload duration             : 504 ms
Writing library                          : LAME3.99r
Encoding settings                        : -m s -V 4 -q 2 -lowpass 17 -b 128

Релиз группы


_________________
Проголосуй за трекер Открытый торрент трекер - RUS-MEDIA.ORG

Проголосуй Открытый торрент трекер - RUS-MEDIA.ORG


Вернуться к началу
 Профиль Отправить личное сообщение  
 
   Похожие торренты   Автор   Торрент   Размер 
В этой теме нет новых непрочитанных сообщений. Чужие / Aliens [ужасы, фантастика, боевик, триллер, 1986] BDRip-HEVC 1080p, Dub [Special Edition]

salma3

17 | 7

20.59 ГБ

В этой теме нет новых непрочитанных сообщений. Чужие среди нас / They Live [ужасы, фантастика, боевик, триллер, 1988] BDRip, Mvo

salma3

9 | 2

1.45 ГБ

В этой теме нет новых непрочитанных сообщений. Кинотюрьма будущего / Dead End Drive-In [ужасы, фантастика, боевик, 1986] BDRip 720p, Avo

salma3

74 | 68

5.37 ГБ

В этой теме нет новых непрочитанных сообщений. Strassenflirts Special Edition 2 / Уличный Флирт - специальное издание 2 (Magma Film) [2018 г., Anal, Hardcore, Oral Sex, Gonzo, MILF, DVDRip]

salma3

0 | 0

3.36 ГБ

В этой теме нет новых непрочитанных сообщений. Чужие на районе / Attack the Block [фантастика, боевик, триллер, комедия, 2011] BDRip 1080p, Mvo

salma3

24 | 12

11.47 ГБ

В этой теме нет новых непрочитанных сообщений. Монстры против пришельцев / Monsters vs Aliens [мультфильм, фантастика, боевик, 2009] BDRip-AVC, Dub

salma3

52 | 20

1.74 ГБ

В этой теме нет новых непрочитанных сообщений. Муха / The Fly [Ужасы, фантастика, драма, 1986] BDRip 1080p, Mvo

salma3

0 | 0

13.11 ГБ


Начать новую тему Ответить на тему  [ 1 сообщение ] 




Для Мосгорсуда, Роскомнадзора и рекламодателей:: mosgorsud-torrent[собачка]yandex.ru
cron