Торрент файл
скачать торрент магнет ссылка Добавлен: 09 окт 2017, 03:11
Размер: 1.49 ГБ
Сидеров: 11
Личеров: 3
Статус: (salma3)
Автор

СообщениеДобавлено: 09 окт 2017, 03:11 

Не в сети
Супермодератор
Аватара пользователя
Дата регистрации:
15 фев 2012, 16:44
Возраст: 28
Спасибо: 7204 / 2147
Сообщения: 65204
Год выпуска: 1995
Жанр: Триллер
Режиссер: Дональд Фармер / Donald Farmer

В ролях: Бриджит Нильсен, Дэнни Фендли, Дана Плато, Мелисса Мур, Линн Лаури, Франклин Уилсон, Дорис Рэгсдэйл, Крис Снайдер, Дональд Фармер, Хайди Хендрикс

Описание:
В самом начале фильма Дэнни Фендли неизвестно в кого стреляет из автоматической винтовки на фоне блондинки. Получает пулю в руку и бежит вместе с ней. Она сладострастно снимает блузку, перевязывает ему рану, а у истекающего кровью брюнета моментально возникает сексуальное желание при виде ее огромного бюста. Он начинает, а она получает пулю в лоб.
Оказывается, что это просмотр отснятого материала для боевика. Включают цвет, и Фендли заявляет, что уходит из киностудии. Начальство почему-то настаивает, чтобы он, величайшая звезда Голливуда, остался, так как в него вложены бешеные деньги. Несмотря на угрозы, он уходит, так как того требует любовница, а Фендли накопил 20 миллионов и хочет наслаждаться свободой с сексапильной блондинкой. Блондинка же больше хочет 20 миллионов, которые она не хочет делить с бывшей женой



Страна: США
Продолжительность: 01:29:05
Перевод: Авторский (одноголосый закадровый)[Сергей Кузнецов]

Качество видео: DVDRip
Видео: XviD build 73, 640x480 (1.33:1), 23.976 fps, 1995 kbps avg, 0.27 bit/pixel
Аудио: AC3 Dolby Digital, 48000Hz 2/0 (L,R) ch (mono), 192.00 kbps avg
Аудио 2: AC3 Dolby Digital, 48000Hz 2/0 (L,R) ch, 192.00 kbps avg

Код:
Загнанный в угол - Compelling Evidence [by ale_x2008].avi
Format                      : AVI
Format/Info                 : Audio Video Interleave
File size                   : 1.49 GiB
Duration                    : 1 h 29 min
Overall bit rate            : 2 394 kb/s
Movie name                  : Загнанный в угол - Compelling Evidence [by ale_x2008]
Director                    : by ale_x2008
Writing application         : VirtualDubMod 1.5.10.2 (build 2540/release)
Copyright                   : Edich2
Comment                     : RuTracker.org
Video
ID                          : 0
Format                      : MPEG-4 Visual
Format profile              : Advanced Simple@L5
Format settings, BVOP       : 2
Format settings, QPel       : No
Format settings, GMC        : No warppoints
Format settings, Matrix     : Custom
Codec ID                    : XVID
Codec ID/Hint               : XviD
Duration                    : 1 h 29 min
Bit rate                    : 1 996 kb/s
Width                       : 640 pixels
Height                      : 480 pixels
Display aspect ratio        : 4:3
Frame rate                  : 23.976 (24000/1001) FPS
Color space                 : YUV
Chroma subsampling          : 4:2:0
Bit depth                   : 8 bits
Scan type                   : Progressive
Compression mode            : Lossy
Bits/(Pixel*Frame)          : 0.271
Stream size                 : 1.24 GiB (83%)
Writing library             : XviD 73
Audio #1
ID                          : 1
Format                      : AC-3
Format/Info                 : Audio Coding 3
Format settings, Endianness : Big
Codec ID                    : 2000
Duration                    : 1 h 29 min
Bit rate mode               : Constant
Bit rate                    : 192 kb/s
Channel(s)                  : 2 channels
Channel positions           : Front: L R
Sampling rate               : 48.0 kHz
Frame rate                  : 31.250 FPS (1536 spf)
Bit depth                   : 16 bits
Compression mode            : Lossy
Stream size                 : 122 MiB (8%)
Alignment                   : Split accross interleaves
Interleave, duration        : 42  ms (1.00 video frame)
Interleave, preload duratio : 500  ms
Service kind                : Complete Main
Audio #2
ID                          : 2
Format                      : AC-3
Format/Info                 : Audio Coding 3
Format settings, Endianness : Big
Codec ID                    : 2000
Duration                    : 1 h 29 min
Bit rate mode               : Constant
Bit rate                    : 192 kb/s
Channel(s)                  : 2 channels
Channel positions           : Front: L R
Sampling rate               : 48.0 kHz
Frame rate                  : 31.250 FPS (1536 spf)
Bit depth                   : 16 bits
Compression mode            : Lossy
Stream size                 : 122 MiB (8%)
Alignment                   : Split accross interleaves
Interleave, duration        : 42  ms (1.00 video frame)
Interleave, preload duratio : 500  ms
Service kind                : Complete Main




Релиз


_________________
Проголосуй за трекер Открытый торрент трекер - RUS-MEDIA.ORG

Проголосуй Открытый торрент трекер - RUS-MEDIA.ORG


Вернуться к началу
 Профиль Отправить личное сообщение  
 
   Похожие торренты   Автор   Торрент   Размер 
В этой теме нет новых непрочитанных сообщений. Без улик / Without Evidence [Триллер, детектив, драма, 1995] BDRip, Mvo

salma3

0 | 0

1.46 ГБ

В этой теме нет новых непрочитанных сообщений. Загнанный / The Hunted [Боевик, триллер, драма, 2003] BDRip, Mvo

salma3

117 | 21

1.35 ГБ

В этой теме нет новых непрочитанных сообщений. Загнанный / The Hunted [Боевик, триллер, драма, 2003] BDRip 720p, Dub+Sub

salma3

38 | 11

5.36 ГБ

В этой теме нет новых непрочитанных сообщений. Красный угол / Red Corne [Триллер, Драма, 1997] WEB-DLRip-AVC, Mvo+Avo+Sub

salma3

84 | 28

2.83 ГБ

В этой теме нет новых непрочитанных сообщений. Улики / Evidence [Триллер, ужасы, 2013] HDRip-AVC, Dub

salma3

74 | 14

745.93 МБ

В этой теме нет новых непрочитанных сообщений. Детективы 2 / The Inspectors 2: A Shred of Evidence [Криминал, триллер, 2000] SATRip, Dvo

salma3

51 | 28

1.46 ГБ

В этой теме нет новых непрочитанных сообщений. Загнанный / Battle of the Drones [боевик, 2017] WEBRip, Dvo

salma3

36 | 0

1.37 ГБ


Начать новую тему Ответить на тему  [ 1 сообщение ] 




Для Мосгорсуда, Роскомнадзора и рекламодателей:: mosgorsud-torrent[собачка]yandex.ru
cron