Торрент файл
скачать торрент магнет ссылка Добавлен: 06 окт 2017, 20:51
Размер: 746.14 МБ
Сидеров: 28
Личеров: 3
Статус: (salma3)
Автор

СообщениеДобавлено: 06 окт 2017, 20:51 

Не в сети
Супермодератор
Аватара пользователя
Дата регистрации:
15 фев 2012, 16:44
Возраст: 28
Спасибо: 6659 / 2146
Сообщения: 46020
Год выхода: 1988
Жанр: Комедия, фэнтази
Режиссер: Тим Бёртон

В ролях: Алек Болдуин, Джина Дэвис, Майкл Китон, Вайнона Райдер, Энни МакЭнро, Морис Пейдж, Хьюго Стэнджер, Рэйчел Миттелман, Кэтрин О’Хара, Марк Эттлингер, Джеффри Джонс, Гленн Шэдикс,

О фильме :
Молодая пара, живущая в тихом провинциальном городке Винтер Ривер, получает долгожданный отпуск. Адам и Барбара Мейтленд решают провести его дома, потому что Барбара хочет похлопотать по хозяйству и сделать кое-какой ремонт, а Адам – закончить макет их родного города, но главное – большую часть своего свободного времени они хотят посвятить попыткам зачать ребёнка. Не прошло и нескольких дней, как планы Мейтландов нарушил произошедший с ними несчастный случай – их машина падает с моста в реку, и супруги погибают. Однако и после смерти пребывание Адама и Барбары на земле не закончилось, они возвращаются в свой дом привидениями. Постепенно привыкая к своему новому воплощению, Мейтланды предполагают, что уж теперь-то для них настанет спокойное житьё, и они смогут насладиться тишиной и уединением. Но их мечтам опять не суждено сбыться...[/color]



Страна: США
Продолжительность: 01:32:06
Перевод: Профессиональный (полное дублирование)

Файл
Формат: MKV
Качество: HDRip-AVC
Видео: MPEG-4 AVC, 736x416, ~ 1047 Кбит/с
Аудио: AAC-LC, 2 ch, ~84 Кбит/с
Субтитры: Русские

Общее
Уникальный идентификатор : 171571440920315075273305108726537553121 (0x811375231C8FD27E9379F235C4A884E1)
Полное имя : D:MOVIESBeetlejuice.1988.ExKinoRay.mkv
Формат : Matroska
Версия формата : Version 4 / Version 2
Размер файла : 746 Мбайт
Продолжительность : 1 ч. 32 м.
Общий поток : 1133 Кбит/сек
Дата кодирования : UTC 2017-10-06 15:27:58
Программа кодирования : mkvmerge v15.0.0 ('Duel with the Devil') 64-bit
Библиотека кодирования : libebml v1.3.5 + libmatroska v1.4.5

Видео
Идентификатор : 1
Формат : AVC
Формат/Информация : Advanced Video Codec
Профиль формата : High@L4.1
Параметр CABAC формата : Да
Параметр RefFrames формата : 10 кадров
Идентификатор кодека : V_MPEG4/ISO/AVC
Продолжительность : 1 ч. 32 м.
Битрейт : 1047 Кбит/сек
Ширина : 736 пикселей
Высота : 416 пикселей
Соотношение сторон : 16:9
Режим частоты кадров : Постоянный
Частота кадров : 23,976 (24000/1001) кадра/сек
Цветовое пространство : YUV
Субдискретизация насыщенности : 4:2:0
Битовая глубина : 8 бит
Тип развёртки : Прогрессивная
Бит/(Пиксели*Кадры) : 0.143
Размер потока : 689 Мбайт (92%)
Библиотека кодирования : x264 core 152 r2851kMod ba24899
Настройки программы : cabac=1 / ref=10 / deblock=1:-3:-3 / analyse=0x3:0x113 / me=umh / subme=11 / psy=1 / fade_compensate=0.00 / psy_rd=1.00:0.15 / mixed_ref=1 / me_range=32 / chroma_me=1 / trellis=2 / 8x8dct=1 / cqm=0 / deadzone=21,11 / fast_pskip=0 / chroma_qp_offset=-3 / threads=6 / lookahead_threads=1 / sliced_threads=0 / nr=0 / decimate=0 / interlaced=0 / bluray_compat=0 / constrained_intra=0 / bframes=10 / b_pyramid=2 / b_adapt=2 / b_bias=0 / direct=3 / weightb=1 / open_gop=0 / weightp=2 / keyint=240 / keyint_min=23 / scenecut=40 / intra_refresh=0 / rc_lookahead=40 / rc=2pass / mbtree=1 / bitrate=1047 / ratetol=1.0 / qcomp=0.60 / qpmin=0 / qpmax=69 / qpstep=4 / cplxblur=20.0 / qblur=0.5 / vbv_maxrate=50000 / vbv_bufsize=62500 / nal_hrd=none / filler=0 / ip_ratio=1.40 / aq=3:1.00
Default : Да
Forced : Нет

Аудио
Идентификатор : 2
Формат : AAC
Формат/Информация : Advanced Audio Codec
Профиль формата : LC
Идентификатор кодека : A_AAC
Продолжительность : 1 ч. 32 м.
Битрейт : 84,0 Кбит/сек
Каналы : 2 канала
Расположение каналов : Front: L R
Частота : 48,0 КГц
Частота кадров : 46,875 кадров/сек (1024 SPF)
Метод сжатия : С потерями
Задержка видео : 9 мс.
Размер потока : 55,3 Мбайт (7%)
Default : Да
Forced : Нет

Текст
Идентификатор : 3
Формат : UTF-8
Идентификатор кодека : S_TEXT/UTF8
Идентификатор кодека/Информация : UTF-8 Plain Text
Продолжительность : 1 ч. 27 м.
Битрейт : 78 бит/сек
ElementCount : 924
Размер потока : 50,5 Кбайт (0%)
Заголовок : русский
Язык : Russian
Default : Нет
Forced : Нет



Релиз от:


_________________
Проголосуй за трекер Открытый торрент трекер - RUS-MEDIA.ORG

Проголосуй Открытый торрент трекер - RUS-MEDIA.ORG



реклама партнёра


Вернуться к началу
 Профиль Отправить личное сообщение  
 
   Похожие торренты   Автор   Торрент   Размер 
В этой теме нет новых непрочитанных сообщений. Авторитет / Juice [триллер, драма, криминал, 1992] HDRip, Dvo

salma3

10 | 1

1.45 ГБ

В этой теме нет новых непрочитанных сообщений. Большой бизнес / Big Business [Комедия, Приключения, 1988] HDRip, Avo

salma3

12 | 4

1.46 ГБ

В этой теме нет новых непрочитанных сообщений. Изюминка / Punchline [драма, мелодрама, комедия, 1988] HDRip, Mvo [1 канал]

salma3

54 | 14

1.45 ГБ

В этой теме нет новых непрочитанных сообщений. Без единой улики / Without a Clue [комедия, криминал, детектив, 1988] HDRip, Dub

salma3

147 | 14

1.45 ГБ

В этой теме нет новых непрочитанных сообщений. Кошмарные сёстры / Nightmare Sisters [Ужасы, комедия, 1988] HDRip, Avo

salma3

35 | 19

1.46 ГБ

В этой теме нет новых непрочитанных сообщений. Замужем За Мафией / Married To The Mob [комедия, криминал, мелодрама, 1988] HDRip, Mvo

salma3

10 | 2

1.45 ГБ

В этой теме нет новых непрочитанных сообщений. Смертельное влечение / Heathers [триллер, комедия, криминал, 1988] HDRip, Mvo

salma3

87 | 6

1.45 ГБ


Начать новую тему Ответить на тему  [ 1 сообщение ] 




Для Мосгорсуда, Роскомнадзора и рекламодателей:: mosgorsud-torrent[собачка]yandex.ru