Торрент файл
скачать торрент магнет ссылка Добавлен: 05 окт 2017, 20:05
Размер: 745.85 МБ
Сидеров: 26
Личеров: 5
Статус: (salma3)
Автор

СообщениеДобавлено: 05 окт 2017, 20:05 

Не в сети
Супермодератор
Аватара пользователя
Дата регистрации:
15 фев 2012, 16:44
Возраст: 28
Спасибо: 7165 / 2147
Сообщения: 62094
Год выхода: 1994
Жанр: боевик, триллер, драма
Режиссер: Перри Лэнг / Perry Lang

В ролях: Дольф Лундгрен, Шарлотта Льюис, Б.Д. Вонг, Энтони Джон Дэнисон, Тим Гини, Дон Харви, Том ’Тайни’ Листер мл., Том Райт, Кэтрин Белл, Тревор Годдар

О фильме :
Ник Гунар возглавляет группу наемников, которые оказались на далеком туземном острове, чтобы провести переговоры с аборигенами по поводу получения права на разработку и добычу минералов. Аборигены не могут противостоять целому отряду вооруженных до зубов профессиональных убийц. Гунар начинает понимать, что он - лишь пешка в этой большой игре и его просто использовали. Ник осознает, что находится не на той стороне и просто не может убивать ни в чем невинных местных жителей. Среди его группы происходит раскол и часть военных остается с Ником, чтобы защитить остров и его целостность. Остальная часть возвращается к заказчикам, чтобы с подкреплением вновь вернуться на остров и расправиться с непокорными.



Страна: США, Испания
Продолжительность: 01:42:47
Перевод: Профессиональный (двухголосый закадровый) | Twister

Файл
Формат: MKV
Качество: HDRip-AVC
Видео: MPEG-4 AVC, 752x336, ~ 941 Кбит/с
Аудио: AAC-LC, 2 ch, ~72 Кбит/с

Общее
Уникальный идентификатор : 245378636972707523769406659498838768922 (0xB89A34DAF26F36C09FD528200416BD1A)
Полное имя : D:MOVIESMen.Of.War.1994.ExKinoRay.mkv
Формат : Matroska
Версия формата : Version 4 / Version 2
Размер файла : 746 Мбайт
Продолжительность : 1 ч. 43 м.
Общий поток : 1012 Кбит/сек
Дата кодирования : UTC 2017-10-05 12:53:07
Программа кодирования : mkvmerge v15.0.0 ('Duel with the Devil') 64-bit
Библиотека кодирования : libebml v1.3.5 + libmatroska v1.4.5

Видео
Идентификатор : 1
Формат : AVC
Формат/Информация : Advanced Video Codec
Профиль формата : High@L4.1
Параметр CABAC формата : Да
Параметр RefFrames формата : 10 кадров
Идентификатор кодека : V_MPEG4/ISO/AVC
Продолжительность : 1 ч. 42 м.
Битрейт : 941 Кбит/сек
Ширина : 752 пикселя
Высота : 336 пикселей
Соотношение сторон : 2,25:1
Режим частоты кадров : Постоянный
Частота кадров : 23,976 (24000/1001) кадра/сек
Цветовое пространство : YUV
Субдискретизация насыщенности : 4:2:0
Битовая глубина : 8 бит
Тип развёртки : Прогрессивная
Бит/(Пиксели*Кадры) : 0.155
Размер потока : 691 Мбайт (93%)
Библиотека кодирования : x264 core 152 r2851kMod ba24899
Настройки программы : cabac=1 / ref=10 / deblock=1:-2:-2 / analyse=0x3:0x113 / me=umh / subme=11 / psy=1 / fade_compensate=0.00 / psy_rd=1.00:0.15 / mixed_ref=1 / me_range=32 / chroma_me=1 / trellis=2 / 8x8dct=1 / cqm=0 / deadzone=21,11 / fast_pskip=0 / chroma_qp_offset=-3 / threads=6 / lookahead_threads=1 / sliced_threads=0 / nr=0 / decimate=0 / interlaced=0 / bluray_compat=0 / constrained_intra=0 / bframes=10 / b_pyramid=2 / b_adapt=2 / b_bias=0 / direct=3 / weightb=1 / open_gop=0 / weightp=2 / keyint=240 / keyint_min=23 / scenecut=40 / intra_refresh=0 / rc_lookahead=40 / rc=2pass / mbtree=1 / bitrate=941 / ratetol=1.0 / qcomp=0.60 / qpmin=0 / qpmax=69 / qpstep=4 / cplxblur=20.0 / qblur=0.5 / vbv_maxrate=50000 / vbv_bufsize=62500 / nal_hrd=none / filler=0 / ip_ratio=1.40 / aq=3:1.00
Default : Да
Forced : Нет

Аудио
Идентификатор : 2
Формат : AAC
Формат/Информация : Advanced Audio Codec
Профиль формата : LC
Идентификатор кодека : A_AAC
Продолжительность : 1 ч. 43 м.
Битрейт : 72,0 Кбит/сек
Каналы : 2 канала
Расположение каналов : Front: L R
Частота : 48,0 КГц
Частота кадров : 46,875 кадров/сек (1024 SPF)
Метод сжатия : С потерями
Задержка видео : 9 мс.
Размер потока : 53,1 Мбайт (7%)
Default : Да
Forced : Нет



Релиз от:


_________________
Проголосуй за трекер Открытый торрент трекер - RUS-MEDIA.ORG

Проголосуй Открытый торрент трекер - RUS-MEDIA.ORG


Вернуться к началу
 Профиль Отправить личное сообщение  
 
   Похожие торренты   Автор   Торрент   Размер 
В этой теме нет новых непрочитанных сообщений. Солдаты Фортуны / Men Of War [боевик, приключения, 1994] HDRip, Mvo+Dvo

salma3

30 | 2

1.46 ГБ

В этой теме нет новых непрочитанных сообщений. Солдаты Фортуны / Men Of War [Боевик, 1994] BDRip 1080p, Mvo+Dvo+Avo+Sub [Расширенная версия]

salma3

132 | 52

8.6 ГБ

В этой теме нет новых непрочитанных сообщений. 13 часов: Тайные солдаты Бенгази / 13 Hours: The Secret Soldiers of Benghazi [боевик, триллер, драма, военный, 2016] HDRip, Dub [чистый звук]

salma3

152 | 4

2.05 ГБ

В этой теме нет новых непрочитанных сообщений. Побег / The Getaway [боевик, триллер, драма, 1994] HDRip-AVC, Mvo

salma3

30 | 11

746.22 МБ

В этой теме нет новых непрочитанных сообщений. Подрывники / Blown Away [боевик, триллер, драма, криминал, 1994] HDRip, Mvo

salma3

11 | 3

1.46 ГБ

В этой теме нет новых непрочитанных сообщений. Потрошители / Repo Men [Фантастика, боевик, триллер, 2010] HDRip-AVC, Dub [Unrated]

salma3

163 | 43

744.73 МБ

В этой теме нет новых непрочитанных сообщений. Побег / В бегах / The Getaway [боевик, триллер, драма, 1994] HDRip, Mvo [Полная версия]

salma3

245 | 70

1.45 ГБ


Начать новую тему Ответить на тему  [ 1 сообщение ] 




Для Мосгорсуда, Роскомнадзора и рекламодателей:: mosgorsud-torrent[собачка]yandex.ru
cron