Торрент файл
скачать торрент магнет ссылка Добавлен: 03 окт 2017, 16:20
Размер: 745.59 МБ
Сидеров: 39
Личеров: 5
Статус: (salma3)
Автор

СообщениеДобавлено: 03 окт 2017, 16:20 

Не в сети
Супермодератор
Аватара пользователя
Дата регистрации:
15 фев 2012, 16:44
Возраст: 28
Спасибо: 7205 / 2147
Сообщения: 65364
Год выпуска: 1988
Жанр: Комедия, фантастика
Режиссер: Ричард Бенджамин

В ролях: Дэн Эйкройд, Ким Бейсингер, Джон Ловиц, Элисон Хэннигэн, Джозеф Maэp, Сет Грин, Энн Прентисс, Уэсли Манн, Тони Джей, Питер Бромилов, Нина Хендерсон, Гарри Ширер, Адриан Спаркс, Джульетт Льюис,

О фильме :
Селеста — сексуальная инопланетянка с секретным заданием — совратить ничего не подозревающего физика Стива Миллса и добраться до его исследований, в которых содержится ключ к спасению ее планеты. Разодетая по последней моде и закусывающая на завтрак батарейками, Селеста производит неизгладимое впечатление на земных мужчин. Счастливый муж вот-вот испытает близкие контакты космически невообразимой степени!



Выпущено: США, Catalina Production Group Ltd., Weintraub Entertainment Group
Продолжительность: 01:43:32
Перевод: Профессиональный (многоголосый, закадровый)

Файл
Формат: MKV
Качество: HDTVRip-AVC
Видео: MPEG-4 AVC, 720x400, ~ 933 Кбит/с
Аудио: AAC-LC, 2 ch, ~72 Кбит/с

Общее
Уникальный идентификатор : 188572952786613937404997261494194464506 (0x8DDDD463C4647BD89663C2046C12E6FA)
Полное имя : D:MOVIESMy Stepmother is an Alien.1988.ExKinoRay.mkv
Формат : Matroska
Версия формата : Version 2
Размер файла : 746 Мбайт
Продолжительность : 1 ч. 43 м.
Общий поток : 1007 Кбит/сек
Дата кодирования : UTC 2017-10-03 11:56:32
Программа кодирования : mkvmerge v15.0.0 ('Duel with the Devil') 64-bit
Библиотека кодирования : libebml v1.3.5 + libmatroska v1.4.5

Видео
Идентификатор : 1
Формат : AVC
Формат/Информация : Advanced Video Codec
Профиль формата : High@L4.1
Параметр CABAC формата : Да
Параметр RefFrames формата : 10 кадров
Идентификатор кодека : V_MPEG4/ISO/AVC
Продолжительность : 1 ч. 43 м.
Битрейт : 933 Кбит/сек
Ширина : 720 пикселей
Высота : 400 пикселей
Соотношение сторон : 16:9
Режим частоты кадров : Постоянный
Частота кадров : 25,000 кадров/сек
Цветовое пространство : YUV
Субдискретизация насыщенности : 4:2:0
Битовая глубина : 8 бит
Тип развёртки : Прогрессивная
Бит/(Пиксели*Кадры) : 0.130
Размер потока : 691 Мбайт (93%)
Библиотека кодирования : x264 core 152 r2851kMod ba24899
Настройки программы : cabac=1 / ref=10 / deblock=1:-3:-3 / analyse=0x3:0x113 / me=umh / subme=11 / psy=1 / fade_compensate=0.00 / psy_rd=1.00:0.10 / mixed_ref=1 / me_range=32 / chroma_me=1 / trellis=2 / 8x8dct=1 / cqm=0 / deadzone=21,11 / fast_pskip=0 / chroma_qp_offset=-3 / threads=6 / lookahead_threads=1 / sliced_threads=0 / nr=0 / decimate=0 / interlaced=0 / bluray_compat=0 / constrained_intra=0 / bframes=10 / b_pyramid=2 / b_adapt=2 / b_bias=0 / direct=3 / weightb=1 / open_gop=0 / weightp=2 / keyint=250 / keyint_min=24 / scenecut=40 / intra_refresh=0 / rc_lookahead=40 / rc=2pass / mbtree=1 / bitrate=933 / ratetol=1.0 / qcomp=0.60 / qpmin=0 / qpmax=69 / qpstep=4 / cplxblur=20.0 / qblur=0.5 / vbv_maxrate=50000 / vbv_bufsize=62500 / nal_hrd=none / filler=0 / ip_ratio=1.40 / aq=3:1.00
Default : Да
Forced : Нет

Аудио
Идентификатор : 2
Формат : AAC
Формат/Информация : Advanced Audio Codec
Профиль формата : LC
Идентификатор кодека : A_AAC
Продолжительность : 1 ч. 43 м.
Битрейт : 72,0 Кбит/сек
Каналы : 2 канала
Расположение каналов : Front: L R
Частота : 48,0 КГц
Частота кадров : 46,875 кадров/сек (1024 SPF)
Метод сжатия : С потерями
Задержка видео : 9 мс.
Размер потока : 53,3 Мбайт (7%)
Default : Да
Forced : Нет



Релиз от:


_________________
Проголосуй за трекер Открытый торрент трекер - RUS-MEDIA.ORG

Проголосуй Открытый торрент трекер - RUS-MEDIA.ORG


Вернуться к началу
 Профиль Отправить личное сообщение  
 
   Похожие торренты   Автор   Торрент   Размер 
В этой теме нет новых непрочитанных сообщений. Моя мачеха - инопланетянка / My Stepmother Is an Alien [Комедия, фантастика, 1988] WEB-DLRip-AVC, Mvo

salma3

36 | 1

746 МБ

В этой теме нет новых непрочитанных сообщений. Моя мачеха - инопланетянка / My Stepmother Is an Alien [фантастика, комедия, 1988] WEBRip 1080p, Mvoича

salma3

81 | 27

10.87 ГБ

В этой теме нет новых непрочитанных сообщений. Инопланетянка из Лос-Анджелеса / Alien from L.A. [фантастика, комедия, приключения, 1988] DVDRip-AVC, Avo

salma3

164 | 33

2.1 ГБ

В этой теме нет новых непрочитанных сообщений. Инопланетянка из Лос-Анджелеса / Alien from L.A. [фантастика, комедия, приключения, 1988] DVDRip, Avo

salma3

175 | 30

1.45 ГБ

В этой теме нет новых непрочитанных сообщений. The Stepmother #14 / Мачеха #14 (2016) WEB-DL

amadei

2 | 4

1.77 ГБ

В этой теме нет новых непрочитанных сообщений. Private Blockbusters 12: My Stepmother Is A Vampire / Моя Мачеха - Вампир (Alex Conte / Private) [2014 г., Feature, Anal, Vampire, 540p, WEB-DL] (Split Scenes)

salma3

11 | 4

1.41 ГБ

В этой теме нет новых непрочитанных сообщений. Чужая нация / Alien Nation [Фантастика, боевик, криминал, 1988] BDRip, Mvo+Avo

salma3

92 | 4

1.45 ГБ


Начать новую тему Ответить на тему  [ 1 сообщение ] 




Для Мосгорсуда, Роскомнадзора и рекламодателей:: mosgorsud-torrent[собачка]yandex.ru
cron