Торрент файл
скачать торрент магнет ссылка Добавлен: 01 окт 2017, 11:42
Размер: 1.37 ГБ
Сидеров: 25
Личеров: 1
Статус: (salma3)
Автор

СообщениеДобавлено: 01 окт 2017, 11:42 

В сети
Супермодератор
Аватара пользователя
Дата регистрации:
15 фев 2012, 16:44
Возраст: 28
Спасибо: 6642 / 2146
Сообщения: 45745
Год выпуска: 1992
Жанр: Триллер, драма, криминал
Режиссер: Деран Сарафьян

В ролях: Фёдор Смирнов, Наталья Негода, Фрэнк Уэйли, Роман Полански, Эндрю Дивофф, Дей Янг, Гарри Дитсон, Брайен Блессид, Константин Григорьев, Борис Романов (I), Всеволод Сафонов, Юрий Саранцев, Олег Анофриев, Николай Аверюшкин, Владимир Дружников, Рита Гладунко, Игорь Класс, Ирина Малышева

Описание: Молодой американец Арчер Слоун приезжает в Россию. В Москве он знакомится с русской девушкой Леной и в результате оказывается в пучине криминальных событий. Обвиняемый в убийстве и оставшийся без документов, Арчер начинает понимать, что может рассчитывать только на собственные силы…



Страна: США, Япония
Продолжительность: 01:23:25
Перевод: Профессиональный [одноголосый, закадровый] [НТВ]

Тип релиза: DVDRip
Видео: 704x384 (1.83:1), 25 fps, XviD build 50 ~2118 kbps avg, 0.31 bit/pixel
Аудио : 48 kHz, AC3 Dolby Digital, 2/0 (L,R) ch, ~224 kbps

Общее
Полное имя : G:ААА2Снова в СССР.avi
Формат : AVI
Формат/Информация : Audio Video Interleave
Размер файла : 1,37 Гбайт
Продолжительность : 1 ч. 23 м.
Общий поток : 2346 Кбит/сек
Программа кодирования : VirtualDubMod 1.5.10.3 | http://www.virtualdub-fr.org || (build 2550/release)
Библиотека кодирования : VirtualDubMod build 2550/release

Видео
Идентификатор : 0
Формат : MPEG-4 Visual
Профиль формата : Advanced Simple@L5
Параметр BVOP формата : 2
Параметр QPel формата : Нет
Параметр GMC формата : Без точки перехода
Параметр матрицы формата : Default (MPEG)
Идентификатор кодека : XVID
Идентификатор кодека/Подсказка : XviD
Продолжительность : 1 ч. 23 м.
Битрейт : 2119 Кбит/сек
Ширина : 704 пикселя
Высота : 384 пикселя
Соотношение сторон : 1,85:1
Частота кадров : 25,000 кадров/сек
Цветовое пространство : YUV
Субдискретизация насыщенности : 4:2:0
Битовая глубина : 8 бит
Тип развёртки : Прогрессивная
Метод сжатия : С потерями
Бит/(Пиксели*Кадры) : 0.314
Размер потока : 1,23 Гбайт (90%)
Библиотека кодирования : XviD 1.2.1 (UTC 2008-12-04)

Аудио
Идентификатор : 1
Формат : AC-3
Формат/Информация : Audio Coding 3
Расширение режима : CM (complete main)
Параметр Endianness формата : Big
Идентификатор кодека : 2000
Продолжительность : 1 ч. 21 м.
Вид битрейта : Постоянный
Битрейт : 224 Кбит/сек
Каналы : 2 канала
Расположение каналов : Front: L R
Частота : 48,0 КГц
Битовая глубина : 16 бит
Метод сжатия : С потерями
Размер потока : 130 Мбайт (9%)
Выравнивание : Разделение по промежуткам
Продолжительность промежутка : 41 мс. (1,03 видеокадр)
Время предзагрузки промежутка : 500 мс.




Релиз:


_________________
Проголосуй за трекер Открытый торрент трекер - RUS-MEDIA.ORG

Проголосуй Открытый торрент трекер - RUS-MEDIA.ORG



реклама партнёра


Вернуться к началу
 Профиль Отправить личное сообщение  
 
   Похожие торренты   Автор   Торрент   Размер 
В этой теме нет новых непрочитанных сообщений. И снова добро пожаловать / Welcome Back [боевик, драма, комедия, криминал, 2015] WEB-DLRip, Dvo

salma3

31 | 8

2.05 ГБ

В этой теме нет новых непрочитанных сообщений. Убей меня снова / Kill Me Again [Боевик, триллер, драма, криминал, 1989] BDRip, Mvo

salma3

0 | 1

1.45 ГБ

В этой теме нет новых непрочитанных сообщений. Макс и Иеремия / Max & Jeremie [триллер, драма, криминал, 1992] DVDRip, Mvo

salma3

47 | 5

1.35 ГБ

В этой теме нет новых непрочитанных сообщений. Убей меня снова / Kill Me Again [боевик, триллер, драма, криминал, 1989] BDRip 720p, Dvo+Mvo+Sub

salma3

81 | 41

4.93 ГБ

В этой теме нет новых непрочитанных сообщений. Поймать убийцу / To Catch a Killer [триллер, драма, криминал, биография, 1992] DVDRip, Avo

salma3

156 | 12

1.74 ГБ

В этой теме нет новых непрочитанных сообщений. Лучшие из лучших 3 / Best of the Best 3: No Turning Back [боевик, триллер, драма, криминал, 1995] BDRip, Mvo

salma3

20 | 6

1.83 ГБ

В этой теме нет новых непрочитанных сообщений. Лучшие из лучших 3 / Best of the Best 3: No Turning Back [боевик, триллер, драма, криминал, 1995] BDRemux 1080p, Mvo

salma3

13 | 5

19.56 ГБ


Начать новую тему Ответить на тему  [ 1 сообщение ] 




Для Мосгорсуда, Роскомнадзора и рекламодателей:: mosgorsud-torrent[собачка]yandex.ru