Торрент файл
скачать торрент магнет ссылка Добавлен: 30 сен 2017, 15:08
Размер: 769.39 МБ
Сидеров: 28
Личеров: 3
Статус: (salma3)
Автор

СообщениеДобавлено: 30 сен 2017, 15:08 

Не в сети
Супермодератор
Аватара пользователя
Дата регистрации:
15 фев 2012, 16:44
Возраст: 28
Спасибо: 7290 / 2147
Сообщения: 70723
Год выхода: 1997
Жанр: боевик, триллер, криминал
Режиссер: Джон Ву / John Woo

В ролях: Джон Траволта, Николас Кейдж, Джоан Аллен, Алессандро Нивола, Джина Гершон, Доминик Суэйн, Ник Кассаветис, Харви Преснелл, Колм Фиор, Джон Кэрролл Линч

О фильме: Чтобы отомстить за жестокое убийство своего сына, агент ФБР Шон Арчер соглашается на сложную хирургическую операцию. Он берет себе новое лицо, лицо террориста Кастора Троя, который находится в коме.

Однако происходит непредвиденное: Трой приходит в себя и исчезает в обличье Арчера. Жизнь Шона превращается в настоящий кошмар — ему приходится сражаться не только за свою жизнь, но и за жизнь своей жены и дочери.



Страна: США
Продолжительность: 02:18:56
Перевод: Профессиональный (полное дублирование)

Файл
Кодек: x264
Качество: HDRip-AVC
Видео: MPEG-4 AVC, 736x314 (2.35:1) at 23.976 fps, ~700 kbps
Звук: AAC-LC, 2 ch, 48 kHz, 72 kbps
Субтитры: русские, английские

Семпл

General
Unique ID : 204690265116242157832943986880672038366 (0x99FDE93D45BED215A0874EB62635FDDE)
Complete name : C:UsersDownloadsFace Off.1997.HDRip-AVC.mkv
Format : Matroska
Format version : Version 4 / Version 2
File size : 769 MiB
Duration : 2 h 18 min
Overall bit rate : 774 kb/s
Encoded date : UTC 2017-09-30 07:12:08
Writing application : mkvmerge v9.6.0 ('Slave To Your Mind') 64bit
Writing library : libebml v1.3.4 + libmatroska v1.4.5

Video
ID : 1
Format : AVC
Format/Info : Advanced Video Codec
Format profile : High@L4.1
Format settings : CABAC / 9 Ref Frames
Format settings, CABAC : Yes
Format settings, RefFrames : 9 frames
Codec ID : V_MPEG4/ISO/AVC
Duration : 2 h 18 min
Bit rate : 700 kb/s
Width : 736 pixels
Height : 314 pixels
Display aspect ratio : 2.35:1
Frame rate mode : Constant
Frame rate : 23.976 (24000/1001) FPS
Color space : YUV
Chroma subsampling : 4:2:0
Bit depth : 8 bits
Scan type : Progressive
Bits/(Pixel*Frame) : 0.126
Stream size : 696 MiB (90%)
Writing library : x264 core 146 r2538 121396c
Encoding settings : cabac=1 / ref=9 / deblock=1:-2:-1 / analyse=0x3:0x113 / me=umh / subme=11 / psy=1 / psy_rd=1.00:0.00 / mixed_ref=1 / me_range=32 / chroma_me=1 / trellis=2 / 8x8dct=1 / cqm=0 / deadzone=21,11 / fast_pskip=0 / chroma_qp_offset=-2 / threads=4 / lookahead_threads=1 / sliced_threads=0 / nr=0 / decimate=0 / interlaced=0 / bluray_compat=0 / constrained_intra=0 / bframes=10 / b_pyramid=2 / b_adapt=2 / b_bias=0 / direct=3 / weightb=1 / open_gop=0 / weightp=2 / keyint=240 / keyint_min=23 / scenecut=40 / intra_refresh=0 / rc_lookahead=40 / rc=2pass / mbtree=0 / bitrate=700 / ratetol=1.0 / qcomp=0.60 / qpmin=0 / qpmax=69 / qpstep=4 / cplxblur=20.0 / qblur=0.5 / vbv_maxrate=50000 / vbv_bufsize=62500 / nal_hrd=none / filler=0 / ip_ratio=1.40 / pb_ratio=1.30 / aq=3:0.90
Default : Yes
Forced : No

Audio
ID : 2
Format : AAC
Format/Info : Advanced Audio Codec
Format profile : LC
Codec ID : A_AAC-2
Duration : 2 h 18 min
Bit rate : 72.0 kb/s
Channel(s) : 2 channels
Channel positions : Front: L R
Sampling rate : 48.0 kHz
Frame rate : 46.875 FPS (1024 SPF)
Compression mode : Lossy
Delay relative to video : 9 ms
Stream size : 71.6 MiB (9%)
Default : Yes
Forced : No

Text #1
ID : 3
Format : UTF-8
Codec ID : S_TEXT/UTF8
Codec ID/Info : UTF-8 Plain Text
Duration : 2 h 12 min
Bit rate : 55 b/s
Count of elements : 1032
Stream size : 54.0 KiB (0%)
Title : Full
Language : Russian
Default : Yes
Forced : No

Text #2
ID : 4
Format : UTF-8
Codec ID : S_TEXT/UTF8
Codec ID/Info : UTF-8 Plain Text
Duration : 2 h 10 min
Bit rate : 38 b/s
Count of elements : 1065
Stream size : 37.1 KiB (0%)
Title : Full
Language : English
Default : No
Forced : No



_________________
Проголосуй за трекер Открытый торрент трекер - RUS-MEDIA.ORG

Проголосуй Открытый торрент трекер - RUS-MEDIA.ORG


Вернуться к началу
 Профиль Отправить личное сообщение  
 
   Похожие торренты   Автор   Торрент   Размер 
В этой теме нет новых непрочитанных сообщений. Без лица / Face/Off [Боевик, триллер, криминал, 1997] BDRemux 1080p, Dub

salma3

10 | 20

29.98 ГБ

В этой теме нет новых непрочитанных сообщений. Подозрительные лица / Suspicious Minds [триллер, 1997] DVDRip, Avo

salma3

81 | 43

1.4 ГБ

В этой теме нет новых непрочитанных сообщений. Без лица / Face Off [08x01-02 из 14] ( Реалити-шоу, 2015) HDTVRip 720р | ViruseProject

marya111

8 | 1

1.96 ГБ

В этой теме нет новых непрочитанных сообщений. Ставки сделаны / Rien ne va plus [триллер, комедия, криминал, 1997] HDRip, Mvo

salma3

0 | 0

1.45 ГБ

В этой теме нет новых непрочитанных сообщений. Провал во времени / Retroactive [фантастика, триллер, криминал, 1997] HDRip, Mvo

salma3

13 | 15

1.45 ГБ

В этой теме нет новых непрочитанных сообщений. Шакал / The Jackal [боевик, триллер, криминал, 1997] BDRip-AVC, Mvo+Sub

salma3

54 | 18

1.46 ГБ

В этой теме нет новых непрочитанных сообщений. Двойник / The Assignment [боевик, триллер, криминал, 1997] WEBRip-AVC, Dub

salma3

25 | 3

3.1 ГБ


Начать новую тему Ответить на тему  [ 1 сообщение ] 




Для Мосгорсуда, Роскомнадзора и рекламодателей:: mosgorsud-torrent[собачка]yandex.ru
cron