Торрент файл
скачать торрент магнет ссылка Добавлен: 28 сен 2017, 11:31
Размер: 746.44 МБ
Сидеров: 143
Личеров: 30
Статус: (salma3)
Автор

СообщениеДобавлено: 28 сен 2017, 11:31 

Не в сети
Супермодератор
Аватара пользователя
Дата регистрации:
15 фев 2012, 16:44
Возраст: 28
Спасибо: 6672 / 2146
Сообщения: 46181
Год выхода: 1990
Жанр: Фантастика, боевик, триллер
Режиссер: Пол Верховен / Paul Verhoeven

В ролях: Арнольд Шварценеггер, Рэйчел Тикотин, Шэрон Стоун, Ронни Кокс, Майкл Айронсайд, Маршалл Белл, Мэл Джонсон мл., Майкл Чэмпион, Рой Броксмит, Рэй Бэйкер, Розмари Дансмор, Дэвид Нелл, Алексия Робинсон, Дин Норрис, Марк Карлтон, Дебби Ли Кэррингтон

О фильме :
Жизнь простого рабочего парня Дага Куэйда скучна и однообразна. Поэтому, чтобы хоть как-то поразвлечься, он решает воспользоваться услугами некой компании, которая за определенную плату посылает в его мозг импульсы, создающие полную иллюзию того, что он — другой человек, живущий другой, интересной жизнью.Все бы хорошо, но после сеанса Дагу совершенно невозможно понять, кто же он на самом деле — простой работяга или спецназовец, владеющий всеми видами оружия и боевых искусств. Его боятся, его хотят убить, на него открыт сезон охоты; даже любимая жена пытается свернуть ему шею. Теперь, чтобы выжить, ему необходимо вспомнить, вспомнить все…



Страна: США
Продолжительность: 01:53:36
Перевод: Профессиональный (многоголосый, закадровый) «Супербит»

Файл
Формат: MKV
Качество: BDRip-AVC
Видео: MPEG-4 AVC, 736x396, ~ 845 Кбит/с
Аудио: AAC-LC, 2 ch, ~72 Кбит/с
Субтитры: Русские

Общее
Уникальный идентификатор : 217761203856355935733615794685534397270 (0xA3D3484656993C39BA1DA350248DE356)
Полное имя : D:MOVIESTotal Recall.1990.ExKinoRay.mkv
Формат : Matroska
Версия формата : Version 4 / Version 2
Размер файла : 746 Мбайт
Продолжительность : 1 ч. 53 м.
Общий поток : 919 Кбит/сек
Дата кодирования : UTC 2017-09-28 05:57:53
Программа кодирования : mkvmerge v15.0.0 ('Duel with the Devil') 64-bit
Библиотека кодирования : libebml v1.3.5 + libmatroska v1.4.5

Видео
Идентификатор : 1
Формат : AVC
Формат/Информация : Advanced Video Codec
Профиль формата : High@L4.1
Параметр CABAC формата : Да
Параметр RefFrames формата : 10 кадров
Идентификатор кодека : V_MPEG4/ISO/AVC
Продолжительность : 1 ч. 53 м.
Битрейт : 845 Кбит/сек
Ширина : 736 пикселей
Высота : 396 пикселей
Соотношение сторон : 1,85:1
Режим частоты кадров : Постоянный
Частота кадров : 23,976 (24000/1001) кадра/сек
Цветовое пространство : YUV
Субдискретизация насыщенности : 4:2:0
Битовая глубина : 8 бит
Тип развёртки : Прогрессивная
Бит/(Пиксели*Кадры) : 0.121
Размер потока : 686 Мбайт (92%)
Библиотека кодирования : x264 core 152 r2851kMod ba24899
Настройки программы : cabac=1 / ref=10 / deblock=1:-1:-1 / analyse=0x3:0x113 / me=umh / subme=11 / psy=1 / fade_compensate=0.00 / psy_rd=1.00:0.15 / mixed_ref=1 / me_range=32 / chroma_me=1 / trellis=2 / 8x8dct=1 / cqm=0 / deadzone=21,11 / fast_pskip=0 / chroma_qp_offset=-3 / threads=6 / lookahead_threads=1 / sliced_threads=0 / nr=0 / decimate=0 / interlaced=0 / bluray_compat=0 / constrained_intra=0 / bframes=10 / b_pyramid=2 / b_adapt=2 / b_bias=0 / direct=3 / weightb=1 / open_gop=0 / weightp=2 / keyint=240 / keyint_min=23 / scenecut=40 / intra_refresh=0 / rc_lookahead=40 / rc=2pass / mbtree=1 / bitrate=845 / ratetol=1.0 / qcomp=0.60 / qpmin=0 / qpmax=69 / qpstep=4 / cplxblur=20.0 / qblur=0.5 / vbv_maxrate=50000 / vbv_bufsize=62500 / nal_hrd=none / filler=0 / ip_ratio=1.40 / aq=3:1.00
Default : Да
Forced : Нет

Аудио
Идентификатор : 2
Формат : AAC
Формат/Информация : Advanced Audio Codec
Профиль формата : LC
Идентификатор кодека : A_AAC
Продолжительность : 1 ч. 53 м.
Битрейт : 72,0 Кбит/сек
Каналы : 2 канала
Расположение каналов : Front: L R
Частота : 48,0 КГц
Частота кадров : 46,875 кадров/сек (1024 SPF)
Метод сжатия : С потерями
Задержка видео : 9 мс.
Размер потока : 58,5 Мбайт (8%)
Default : Да
Forced : Нет

Текст
Идентификатор : 3
Формат : UTF-8
Идентификатор кодека : S_TEXT/UTF8
Идентификатор кодека/Информация : UTF-8 Plain Text
Продолжительность : 1 ч. 48 м.
Битрейт : 73 бит/сек
ElementCount : 894
Размер потока : 58,6 Кбайт (0%)
Default : Да
Forced : Нет

Релиз от:


_________________
Проголосуй за трекер Открытый торрент трекер - RUS-MEDIA.ORG

Проголосуй Открытый торрент трекер - RUS-MEDIA.ORG



реклама партнёра


Вернуться к началу
 Профиль Отправить личное сообщение  
 
   Похожие торренты   Автор   Торрент   Размер 
В этой теме нет новых непрочитанных сообщений. Вспомнить всё / Total Recall [Фантастика, боевик, триллер, 1990] BDRip 720p, Mvo

salma3

31 | 7

9.45 ГБ

В этой теме нет новых непрочитанных сообщений. Вспомнить всё / Total Recall [фантастика, боевик, 1990] Blu-ray 1080p, Mvo [Ultimate Rekall Edition]

salma3

39 | 55

43.8 ГБ

В этой теме нет новых непрочитанных сообщений. Вспомнить всё: Похищение / The Recall [фантастика, 2017] WEB-DLRip, Mvo

salma3

3355 | 1464

1.37 ГБ

В этой теме нет новых непрочитанных сообщений. Вспомнить всё: Похищение / The Recall [фантастика, 2017] WEB-DL 1080p, Mvo

salma3

690 | 331

3.4 ГБ

В этой теме нет новых непрочитанных сообщений. Луна 44 / Moon 44 [фантастика, боевик, триллер, 1990] BDRip 720p, Dub+Mvo+Dvo+Sub

salma3

44 | 5

4.28 ГБ

В этой теме нет новых непрочитанных сообщений. Хищник 2 / Predator 2 [ужасы, фантастика, боевик, триллер, 1990] BDRip 1080p, Dub+Mvo+Dvo+Avo+Sub

salma3

44 | 17

12.42 ГБ

В этой теме нет новых непрочитанных сообщений. Глубокое погружение / The Rift [ужасы, фантастика, боевик, триллер, приключения, 1990] BDRip, Avo

salma3

119 | 33

1.46 ГБ


Начать новую тему Ответить на тему  [ 1 сообщение ] 




Для Мосгорсуда, Роскомнадзора и рекламодателей:: mosgorsud-torrent[собачка]yandex.ru