Торрент файл
скачать торрент магнет ссылка Добавлен: 27 сен 2017, 20:53
Размер: 744.73 МБ
Сидеров: 163
Личеров: 43
Статус: (salma3)
Автор

СообщениеДобавлено: 27 сен 2017, 20:53 

Не в сети
Супермодератор
Аватара пользователя
Дата регистрации:
15 фев 2012, 16:44
Возраст: 28
Спасибо: 6584 / 2144
Сообщения: 44064
Год выхода: 2010
Жанр: Фантастика, боевик, триллер
Режиссер: Мигель Сапочник

В ролях: Джуд Лоу, Форест Уитакер, Алиси Брага, Лив Шрайбер, Кэрис Ван Хаутен, Чандлер Кентербери, Джо Пинг, Лиза Лапира, Тиффани Эспенсен, Ивет Николь Браун

О фильме :
В недалеком будущем искусственные органы будут доступны всем и даже в кредит. Если же человек не в состоянии оплатить долг, то принимаются крайне жесткие меры. Однажды к нему в дом может вломиться Потрошитель, который способен подавить любое сопротивление и должен изъять из него искусственный орган, собственность компании Union. Реми как раз такой - и охотник, и жертва - он Потрошитель, и он же не может оплатить пересадку сердца, а посему вынужден пуститься в бега...



Страна: США
Продолжительность: 01:59:31
Перевод: Профессиональный (дублированный)

Файл
Формат: MKV
Качество: HDRip-AVC
Видео: MPEG-4 AVC, 752x320, ~ 798 Кбит/с
Аудио: AAC-LC, 2 ch, ~72 Кбит/с
Субтитры: Русские

Общее
Уникальный идентификатор : 205803808798983872175416484859597706224 (0x9AD45F2E8379AA8DA77EF36C140253F0)
Полное имя : D:MOVIESPotroshiteli.2010.ExKinoRay.mkv
Формат : Matroska
Версия формата : Version 4 / Version 2
Размер файла : 745 Мбайт
Продолжительность : 1 ч. 59 м.
Общий поток : 871 Кбит/сек
Дата кодирования : UTC 2017-09-27 16:37:00
Программа кодирования : mkvmerge v15.0.0 ('Duel with the Devil') 64-bit
Библиотека кодирования : libebml v1.3.5 + libmatroska v1.4.5

Видео
Идентификатор : 1
Формат : AVC
Формат/Информация : Advanced Video Codec
Профиль формата : High@L4.1
Параметр CABAC формата : Да
Параметр RefFrames формата : 10 кадров
Идентификатор кодека : V_MPEG4/ISO/AVC
Продолжительность : 1 ч. 59 м.
Битрейт : 798 Кбит/сек
Ширина : 752 пикселя
Высота : 320 пикселей
Соотношение сторон : 2,35:1
Режим частоты кадров : Постоянный
Частота кадров : 23,976 (24000/1001) кадра/сек
Цветовое пространство : YUV
Субдискретизация насыщенности : 4:2:0
Битовая глубина : 8 бит
Тип развёртки : Прогрессивная
Бит/(Пиксели*Кадры) : 0.138
Размер потока : 681 Мбайт (91%)
Библиотека кодирования : x264 core 152 r2851kMod ba24899
Настройки программы : cabac=1 / ref=10 / deblock=1:-2:-2 / analyse=0x3:0x113 / me=umh / subme=11 / psy=1 / fade_compensate=0.00 / psy_rd=1.00:0.20 / mixed_ref=1 / me_range=32 / chroma_me=1 / trellis=2 / 8x8dct=1 / cqm=0 / deadzone=21,11 / fast_pskip=0 / chroma_qp_offset=-3 / threads=6 / lookahead_threads=1 / sliced_threads=0 / nr=0 / decimate=0 / interlaced=0 / bluray_compat=0 / constrained_intra=0 / bframes=10 / b_pyramid=2 / b_adapt=2 / b_bias=0 / direct=3 / weightb=1 / open_gop=0 / weightp=2 / keyint=240 / keyint_min=23 / scenecut=40 / intra_refresh=0 / rc_lookahead=40 / rc=2pass / mbtree=1 / bitrate=798 / ratetol=1.0 / qcomp=0.60 / qpmin=0 / qpmax=69 / qpstep=4 / cplxblur=20.0 / qblur=0.5 / vbv_maxrate=50000 / vbv_bufsize=62500 / nal_hrd=none / filler=0 / ip_ratio=1.40 / aq=3:1.00
Default : Да
Forced : Нет

Аудио
Идентификатор : 2
Формат : AAC
Формат/Информация : Advanced Audio Codec
Профиль формата : LC
Идентификатор кодека : A_AAC
Продолжительность : 1 ч. 59 м.
Битрейт : 72,0 Кбит/сек
Каналы : 2 канала
Расположение каналов : Front: L R
Частота : 48,0 КГц
Частота кадров : 46,875 кадров/сек (1024 SPF)
Метод сжатия : С потерями
Задержка видео : 9 мс.
Размер потока : 61,6 Мбайт (8%)
Default : Да
Forced : Нет

Текст
Идентификатор : 3
Формат : UTF-8
Идентификатор кодека : S_TEXT/UTF8
Идентификатор кодека/Информация : UTF-8 Plain Text
Продолжительность : 1 ч. 53 м.
Битрейт : 74 бит/сек
ElementCount : 991
Размер потока : 61,8 Кбайт (0%)
Заголовок : dly ludey s oslablennim sluhom
Язык : Russian
Default : Нет
Forced : Нет




Релиз от:


_________________
Проголосуй за трекер Открытый торрент трекер - RUS-MEDIA.ORG

Проголосуй Открытый торрент трекер - RUS-MEDIA.ORG



реклама партнёра


Вернуться к началу
 Профиль Отправить личное сообщение  
 
   Похожие торренты   Автор   Торрент   Размер 
В этой теме нет новых непрочитанных сообщений. Потрошители / Repo Men [Фантастика, боевик, триллер, 2010] BDRip-HEVC 1080p, Dub [Unrated]

salma3

19 | 27

5.5 ГБ

В этой теме нет новых непрочитанных сообщений. Озеро страха 3 / Lake Placid 3 pужасы, фантастика, боевик, триллер, 2010] DVDRip-AVC, Mvo [Unrated]

salma3

138 | 57

2.73 ГБ

В этой теме нет новых непрочитанных сообщений. Конфискатор / Repo Man [фантастика, триллер, комедия, криминал, 1984] BDRemux 1080p, Dvo

salma3

13 | 13

20.03 ГБ

В этой теме нет новых непрочитанных сообщений. Напролом / Lockout [Фантастика, боевик, триллер, 2012] BDRip-AVC, Dub [UNRATED]

salma3

210 | 54

745.91 МБ

В этой теме нет новых непрочитанных сообщений. Солдаты Фортуны / Men Of War [боевик, триллер, драма, 1994] HDRip-AVC, Dvo [Unrated Cut]

salma3

26 | 5

745.85 МБ

В этой теме нет новых непрочитанных сообщений. Конфискатор / Repo Man (Алекс Кокс / Alex Cox) [1984г., боевик, фантастика, комедия, BDRip-AVC] DVO+2avo

Alfredovich

98 | 6

2.46 ГБ

В этой теме нет новых непрочитанных сообщений. Судный день / Doomsday [Фантастика, боевик, триллер, 2008] BDRemux 1080p, Dub [Unrated]

salma3

18 | 2

24.88 ГБ


Начать новую тему Ответить на тему  [ 1 сообщение ] 




Для Мосгорсуда, Роскомнадзора и рекламодателей:: mosgorsud-torrent[собачка]yandex.ru