Торрент файл
скачать торрент магнет ссылка Добавлен: 27 сен 2017, 11:19
Размер: 2.65 ГБ
Сидеров: 85
Личеров: 14
Статус: (salma3)
Автор

СообщениеДобавлено: 27 сен 2017, 11:19 

В сети
Супермодератор
Аватара пользователя
Дата регистрации:
15 фев 2012, 16:44
Возраст: 28
Спасибо: 7205 / 2147
Сообщения: 65575
Год выхода: 1994
Жанр: ужасы, фантастика, триллер
Режиссер: Стюарт Орм

В ролях: Дональд Сазерленд, Эрик Тал, Джули Уорнер, Кит Дэвид, Уилл Пэттон, Ричард Белцер, Том Мэйсон, Яфет Котто, Джерри Бэммен, Сэм Андерсон, Дж. Патрик МакКормак, Маршалл Белл, Николас Каскон,

О фильме:
Экранизация одноименного романа Р. Хайнлайна. По местному каналу новостей одного небольшого городка США проходит сообщение о том, что в окрестностях городка совершил посадку НЛО. Спустя некоторое время тот же канал опровергает высказанную ранее информацию, представляя ее как выдумку местных мальчишек.
Тем не менее, сотрудники секретной службы направляются туда для проверки сообщения и обнаруживают плохо скроенный макет космической «тарелки».
Чрезмерная любезность и гостеприимство местных жителей заставляют их задуматься о том, что же случилось на самом деле. Уверенность приходит в тот момент, когда на спине одного из жителей городка они обнаруживают странного вида существо-паразита явно неземного происхождения. Но предотвратить беду становится поздно — число людей, зараженных пришельцами, увеличивается не по дням, а по часам.



Страна: США
Продолжительность: 01:48:55
Перевод: Профессиональный (Многоголосый, закадровый), профессиональный (двухголосый, закадровый), авторский (одноголосый, закадровый)

Качество: HDRip-AVC
Видео: AVC, 1024x428 (2.40:1), 23.976 fps, 2 328 Kbps (0.222 bit/pixel)
Аудио #1: AC-3, 48.0 KHz, 2 ch, 192 Kbps, CBR (Russian) Профессиональный (многоголосый закадровый) - ОРТ
Аудио #2: AC-3, 48.0 KHz, 2 ch, 192 Kbps, CBR (Russian) Профессиональный (двухголосый закадровый) - Видеосервис
Аудио #3: AC-3, 48.0 KHz, 2 ch, 192 Kbps, CBR (Russian) Профессиональный (двухголосый закадровый) - НТВ+
Аудио #4: AC-3, 48.0 KHz, 2 ch, 192 Kbps, CBR (Russian) Авторский (одноголосый закадровый) - Кузнецов
Аудио #5: AC-3, 48.0 KHz, 2 ch, 192 Kbps, CBR (Russian) Авторский (одноголосый закадровый) - Живов
Аудио #6: AC-3, 48.0 KHz, 2 ch, 192 Kbps, CBR (English)
Субтитры: Russian, English

Релиз: &

Формат : Matroska
Версия формата : Version 2
Размер файла : 2,65 Гбайт
Продолжительность : 1 ч. 48 м.
Общий поток : 3483 Кбит/сек
Дата кодирования : UTC 2017-09-26 11:44:17
Программа кодирования : mkvmerge v5.3.0 ('I could have danced') built on Feb 9 2012 10:38:07
Библиотека кодирования : libebml v1.2.3 + libmatroska v1.3.0
Обложка : Yes
Attachments : cover.jpg

Видео
Идентификатор : 1
Формат : AVC
Формат/Информация : Advanced Video Codec
Профиль формата : High@L4.1
Параметр CABAC формата : Да
Параметр ReFrames формата : 12 кадров
Идентификатор кодека : V_MPEG4/ISO/AVC
Продолжительность : 1 ч. 48 м.
Битрейт : 2328 Кбит/сек
Ширина : 1024 пикселя
Высота : 428 пикселей
Соотношение сторон : 2,40:1
Режим частоты кадров : Постоянный
Частота кадров : 23,976 (24000/1001) кадра/сек
Цветовое пространство : YUV
Субдискретизация насыщенности : 4:2:0
Битовая глубина : 8 бит
Тип развёртки : Прогрессивная
Бит/(Пиксели*Кадры) : 0.222
Размер потока : 1,72 Гбайт (65%)
Библиотека кодирования : x264 core 146 r2538 121396c
Настройки программы : cabac=1 / ref=12 / deblock=1:-3:-3 / analyse=0x3:0x133 / me=umh / subme=11 / psy=1 / psy_rd=1.00:0.10 / mixed_ref=1 / me_range=32 / chroma_me=1 / trellis=2 / 8x8dct=1 / cqm=0 / deadzone=21,11 / fast_pskip=0 / chroma_qp_offset=-3 / threads=12 / lookahead_threads=3 / sliced_threads=0 / nr=0 / decimate=0 / interlaced=0 / bluray_compat=0 / constrained_intra=0 / bframes=10 / b_pyramid=2 / b_adapt=2 / b_bias=0 / direct=3 / weightb=1 / open_gop=0 / weightp=2 / keyint=240 / keyint_min=23 / scenecut=40 / intra_refresh=0 / rc=2pass / mbtree=0 / bitrate=2328 / ratetol=1.0 / qcomp=0.60 / qpmin=0 / qpmax=69 / qpstep=4 / cplxblur=20.0 / qblur=0.5 / ip_ratio=1.40 / pb_ratio=1.30 / aq=1:0.70
Default : Да
Forced : Нет

Аудио #1
Идентификатор : 2
Формат : AC-3
Формат/Информация : Audio Coding 3
Расширение режима : CM (complete main)
Параметр Endianness формата : Big
Идентификатор кодека : A_AC3
Продолжительность : 1 ч. 48 м.
Вид битрейта : Постоянный
Битрейт : 192 Кбит/сек
Каналы : 2 канала
Расположение каналов : Front: L R
Частота : 48,0 КГц
Частота кадров : 31,250 кадров/сек (1536 spf)
Битовая глубина : 16 бит
Метод сжатия : С потерями
Размер потока : 150 Мбайт (6%)
Заголовок : Профессиональный многоголосый - Первый канал
Язык : Russian
Default : Да
Forced : Нет

Аудио #2
Идентификатор : 3
Формат : AC-3
Формат/Информация : Audio Coding 3
Расширение режима : CM (complete main)
Параметр Endianness формата : Big
Идентификатор кодека : A_AC3
Продолжительность : 1 ч. 48 м.
Вид битрейта : Постоянный
Битрейт : 192 Кбит/сек
Каналы : 2 канала
Расположение каналов : Front: L R
Частота : 48,0 КГц
Частота кадров : 31,250 кадров/сек (1536 spf)
Битовая глубина : 16 бит
Метод сжатия : С потерями
Размер потока : 150 Мбайт (6%)
Заголовок : Профессиональный двухголосый - Видеосервис
Язык : Russian
Default : Нет
Forced : Нет

Аудио #3
Идентификатор : 4
Формат : AC-3
Формат/Информация : Audio Coding 3
Расширение режима : CM (complete main)
Параметр Endianness формата : Big
Идентификатор кодека : A_AC3
Продолжительность : 1 ч. 48 м.
Вид битрейта : Постоянный
Битрейт : 192 Кбит/сек
Каналы : 2 канала
Расположение каналов : Front: L R
Частота : 48,0 КГц
Частота кадров : 31,250 кадров/сек (1536 spf)
Битовая глубина : 16 бит
Метод сжатия : С потерями
Размер потока : 150 Мбайт (6%)
Заголовок : Профессиональный двухголосый - НТВ+
Язык : Russian
Default : Нет
Forced : Нет

Аудио #4
Идентификатор : 5
Формат : AC-3
Формат/Информация : Audio Coding 3
Расширение режима : CM (complete main)
Параметр Endianness формата : Big
Идентификатор кодека : A_AC3
Продолжительность : 1 ч. 48 м.
Вид битрейта : Постоянный
Битрейт : 192 Кбит/сек
Каналы : 2 канала
Расположение каналов : Front: L R
Частота : 48,0 КГц
Частота кадров : 31,250 кадров/сек (1536 spf)
Битовая глубина : 16 бит
Метод сжатия : С потерями
Размер потока : 150 Мбайт (6%)
Заголовок : Авторский С.Кузнецов
Язык : Russian
Default : Нет
Forced : Нет

Аудио #5
Идентификатор : 6
Формат : AC-3
Формат/Информация : Audio Coding 3
Расширение режима : CM (complete main)
Параметр Endianness формата : Big
Идентификатор кодека : A_AC3
Продолжительность : 1 ч. 48 м.
Вид битрейта : Постоянный
Битрейт : 192 Кбит/сек
Каналы : 2 канала
Расположение каналов : Front: L R
Частота : 48,0 КГц
Частота кадров : 31,250 кадров/сек (1536 spf)
Битовая глубина : 16 бит
Метод сжатия : С потерями
Размер потока : 150 Мбайт (6%)
Заголовок : Авторский Ю.Живов
Язык : Russian
Default : Нет
Forced : Нет

Аудио #6
Идентификатор : 7
Формат : AC-3
Формат/Информация : Audio Coding 3
Расширение режима : CM (complete main)
Параметр Endianness формата : Big
Идентификатор кодека : A_AC3
Продолжительность : 1 ч. 48 м.
Вид битрейта : Постоянный
Битрейт : 192 Кбит/сек
Каналы : 2 канала
Расположение каналов : Front: L R
Частота : 48,0 КГц
Частота кадров : 31,250 кадров/сек (1536 spf)
Битовая глубина : 16 бит
Метод сжатия : С потерями
Размер потока : 150 Мбайт (6%)
Язык : English
Default : Нет
Forced : Нет

Текст #1
Идентификатор : 8
Формат : UTF-8
Идентификатор кодека : S_TEXT/UTF8
Идентификатор кодека/Информация : UTF-8 Plain Text
Язык : Russian
Default : Нет
Forced : Нет

Текст #2
Идентификатор : 9
Формат : UTF-8
Идентификатор кодека : S_TEXT/UTF8
Идентификатор кодека/Информация : UTF-8 Plain Text
Язык : English
Default : Нет
Forced : Нет

Текст #3
Идентификатор : 10
Формат : UTF-8
Идентификатор кодека : S_TEXT/UTF8
Идентификатор кодека/Информация : UTF-8 Plain Text
Заголовок : SDH
Язык : English
Default : Нет
Forced : Нет

Меню
00:00:00.000 : en:Opening Credits
00:04:04.285 : en:The Television Station
00:16:48.215 : en:Back at the Lab
00:30:27.534 : en:A Package From Iowa
00:40:07.405 : en:Communication
00:49:29.299 : en:Sending in the Troops
01:01:42.240 : en:Observation
01:09:53.147 : en:Sam's Place
01:16:33.213 : en:Going After the Hive
01:31:02.748 : en:The Cure
01:37:21.460 : en:The Unexpected
01:43:07.139 : en:Reconciliation


_________________
Проголосуй за трекер Открытый торрент трекер - RUS-MEDIA.ORG

Проголосуй Открытый торрент трекер - RUS-MEDIA.ORG


Вернуться к началу
 Профиль Отправить личное сообщение  
 
   Похожие торренты   Автор   Торрент   Размер 
В этой теме нет новых непрочитанных сообщений. Кукловоды / The Puppet Masters [Фантастика, Ужасы, Триллер, 1994] BDRip 1080p, Mvo

salma3

18 | 11

15.05 ГБ

В этой теме нет новых непрочитанных сообщений. Сканирование мозга / Brainscan [ужасы, фантастика, триллер, 1994] WEB-DLRip-AVC, Mvo

salma3

6 | 0

2.18 ГБ

В этой теме нет новых непрочитанных сообщений. Сканирование мозга / Brainscan [ужасы, фантастика, триллер, комедия, 1994] WEB-DLRip-AVC, Mvo+Dvo+Sub

salma3

10 | 0

2.16 ГБ

В этой теме нет новых непрочитанных сообщений. Сканирование мозга / Brainscan [ужасы, фантастика, триллер, комедия, 1994] WEB-DL 720p, Mvo+Dvo+Sub

salma3

50 | 12

3.49 ГБ

В этой теме нет новых непрочитанных сообщений. Сканирование мозга / Brainscan [ужасы, фантастика, триллер, комедия, 1994] WEBRip 1080p, Mvo

salma3

7 | 5

9.36 ГБ

В этой теме нет новых непрочитанных сообщений. Подвиды 3: Жажда крови / Bloodlust: Subspecies III [ужасы, фэнтези, триллер, 1994] HDRip-AVC, Avo

salma3

15 | 4

745.27 МБ

В этой теме нет новых непрочитанных сообщений. Класс 1999: Новый учитель / Class of 1999 II: The Substitute [ужасы, фантастика, боевик, триллер, 1994] DVDRip-AVC, Dvo

salma3

65 | 11

2.48 ГБ


Начать новую тему Ответить на тему  [ 1 сообщение ] 




Для Мосгорсуда, Роскомнадзора и рекламодателей:: mosgorsud-torrent[собачка]yandex.ru
cron