Торрент файл
скачать торрент магнет ссылка Добавлен: 26 сен 2017, 22:31
Размер: 745.74 МБ
Сидеров: 32
Личеров: 11
Статус: (salma3)
Автор

СообщениеДобавлено: 26 сен 2017, 22:31 

Не в сети
Супермодератор
Аватара пользователя
Дата регистрации:
15 фев 2012, 16:44
Возраст: 28
Спасибо: 7290 / 2147
Сообщения: 70552
Год выхода: 1989
Жанр: ужасы, фантастика, боевик
Режиссер: Джим Уайнорски

В ролях: Луи Журдан, Хэзер Локлир, Сара Дуглас, Дик Дурок, Джо Сагал, Эйс Маск, Моник Габриэль, РонРико Ли, Дэниэл Эмери Тейлор, Ральф Пейс

О фильме :
Прекрасная Абигэйл приезжает в лабораторию своего отчима доктора Аркейна, чтобы узнать тайну смерти ее матери. К сожалению, Аркейн склонен лишить ее жизни для создания своей формулы бессмертия. На помощь Абигэйл приходит бывший доктор Холланд (а ныне болотное чудовище) и уносит ее в болото, где они вскоре безумно влюбляются друг в друга. Но их роман ставится под вопрос, когда Аркейн начинает охоту на эту странную парочку с целым арсеналом оружия…



Страна: США
Продолжительность: 01:27:02
Перевод: Любительский (одноголосый закадровый) - М.Иванов

Файл
Формат: MKV
Качество: BDRip-AVC
Видео: MPEG-4 AVC, 752x408, ~ 1125 Кбит/с
Аудио: AAC-LC, 2 ch, ~72 Кбит/с

Общее
Уникальный идентификатор : 187159350551662379842031587138335234291 (0x8CCD946B25EEECE9B5D95AEA13B958F3)
Полное имя : D:MOVIESThe.Return.of.Swamp.Thing.1989.ExKinoRay.mkv
Формат : Matroska
Версия формата : Version 2
Размер файла : 746 Мбайт
Продолжительность : 1 ч. 27 м.
Общий поток : 1198 Кбит/сек
Дата кодирования : UTC 2017-09-26 17:41:21
Программа кодирования : mkvmerge v15.0.0 ('Duel with the Devil') 64-bit
Библиотека кодирования : libebml v1.3.5 + libmatroska v1.4.5

Видео
Идентификатор : 1
Формат : AVC
Формат/Информация : Advanced Video Codec
Профиль формата : High@L4.1
Параметр CABAC формата : Да
Параметр RefFrames формата : 10 кадров
Идентификатор кодека : V_MPEG4/ISO/AVC
Продолжительность : 1 ч. 27 м.
Битрейт : 1125 Кбит/сек
Ширина : 752 пикселя
Высота : 408 пикселей
Соотношение сторон : 1,85:1
Режим частоты кадров : Постоянный
Частота кадров : 24,000 кадра/сек
Цветовое пространство : YUV
Субдискретизация насыщенности : 4:2:0
Битовая глубина : 8 бит
Тип развёртки : Прогрессивная
Бит/(Пиксели*Кадры) : 0.153
Размер потока : 700 Мбайт (94%)
Библиотека кодирования : x264 core 152 r2851kMod ba24899
Настройки программы : cabac=1 / ref=10 / deblock=1:-2:-2 / analyse=0x3:0x113 / me=umh / subme=11 / psy=1 / fade_compensate=0.00 / psy_rd=1.00:0.05 / mixed_ref=1 / me_range=32 / chroma_me=1 / trellis=2 / 8x8dct=1 / cqm=0 / deadzone=21,11 / fast_pskip=0 / chroma_qp_offset=-3 / threads=6 / lookahead_threads=1 / sliced_threads=0 / nr=0 / decimate=0 / interlaced=0 / bluray_compat=0 / constrained_intra=0 / bframes=10 / b_pyramid=2 / b_adapt=2 / b_bias=0 / direct=3 / weightb=1 / open_gop=0 / weightp=2 / keyint=240 / keyint_min=23 / scenecut=40 / intra_refresh=0 / rc_lookahead=40 / rc=2pass / mbtree=1 / bitrate=1125 / ratetol=1.0 / qcomp=0.60 / qpmin=0 / qpmax=69 / qpstep=4 / cplxblur=20.0 / qblur=0.5 / vbv_maxrate=50000 / vbv_bufsize=62500 / nal_hrd=none / filler=0 / ip_ratio=1.40 / aq=3:1.00
Default : Да
Forced : Нет

Аудио
Идентификатор : 2
Формат : AAC
Формат/Информация : Advanced Audio Codec
Профиль формата : LC
Идентификатор кодека : A_AAC
Продолжительность : 1 ч. 27 м.
Битрейт : 72,0 Кбит/сек
Каналы : 2 канала
Расположение каналов : Front: L R
Частота : 48,0 КГц
Частота кадров : 46,875 кадров/сек (1024 SPF)
Метод сжатия : С потерями
Задержка видео : 9 мс.
Размер потока : 44,8 Мбайт (6%)
Язык : Russian
Default : Да
Forced : Нет




Релиз от:


_________________
Проголосуй за трекер Открытый торрент трекер - RUS-MEDIA.ORG

Проголосуй Открытый торрент трекер - RUS-MEDIA.ORG


Вернуться к началу
 Профиль Отправить личное сообщение  
 
   Похожие торренты   Автор   Торрент   Размер 
В этой теме нет новых непрочитанных сообщений. Возвращение болотной твари / The Return of Swamp Thing [ужасы, фантастика, боевик, 1989] BDRip 1080р, Avo

salma3

6 | 2

8.62 ГБ

В этой теме нет новых непрочитанных сообщений. Возвращение болотной твари / The Return of Swamp Thing [ужасы, фантастика, боевик, 1989] BDRemux 1080р, Avo+Sub

salma3

8 | 6

13.62 ГБ

В этой теме нет новых непрочитанных сообщений. Возвращение помидоров-убийц / Return of the Killer Tomatoes [ужасы, фантастика, комедия, 1988] BDRip, Dvo

salma3

3 | 0

1.45 ГБ

В этой теме нет новых непрочитанных сообщений. Возвращение помидоров-убийц / Return of the Killer Tomatoes [Комедия, фантастика, ужасы, 1988] BDRip-AVC, Dvo

salma3

2 | 1

2.03 ГБ

В этой теме нет новых непрочитанных сообщений. Месть / Возвращение / The Return [ужасы, триллер, детектив, 2010] BDRip-AVC, Dub

salma3

215 | 33

745.6 МБ

В этой теме нет новых непрочитанных сообщений. Возвращение живых мертвецов / The Return of the Living Dead [ужасы, 1985] BDRip-AVC, Dvo

salma3

13 | 35

744.44 МБ

В этой теме нет новых непрочитанных сообщений. Возвращение живых мертвецов 3 / Return of the Living Dead 3 [ужасы, 1993] BDRip-AVC, Mvo

salma3

41 | 24

744.89 МБ


Начать новую тему Ответить на тему  [ 1 сообщение ] 




Для Мосгорсуда, Роскомнадзора и рекламодателей:: mosgorsud-torrent[собачка]yandex.ru
cron