Торрент файл
скачать торрент магнет ссылка Добавлен: 24 сен 2017, 11:40
Размер: 1.27 ГБ
Сидеров: 82
Личеров: 11
Статус: (salma3)
Автор

СообщениеДобавлено: 24 сен 2017, 11:40 

В сети
Супермодератор
Аватара пользователя
Дата регистрации:
15 фев 2012, 16:44
Возраст: 28
Спасибо: 7203 / 2147
Сообщения: 65078
Год выпуска: 2016
Жанр: драма, экранизация
Режиссер: Уильям Олдройд

В ролях: Флоренс Пью, Космо Джарвис, Пол Хилтон, Кристофер Фэйрбэнк, Голда Рошевель, Ребекка Мэнли, Флер Хаудейк, Клиф Бёрнет

Описание:
Викторианская Англия 19-го столетия. Небольшая деревня, живущая в соответствии с особыми укладами и нравами, присущими той поре. Молодая девушка по имени Кэтрин проживает скучную и ничем не примечательную жизнь. Всё меняется, когда она узнает, что должна стать супругой мужчины, который вдвое старше её. Новоиспеченная семья относится к Кэтрин с пренебрежением и даёт девушке понять, что ждать заботы и любви в этом доме ей не стоит. Спустя некоторое время Кэтрин заводит знакомство с молодым рабочим фермы своего супруга, и между ними вспыхивает страсть. По мотивам повести Николая Лескова «Леди Макбет Мценского уезда».



Страна: Великобритания
Продолжительность: 01:28:54
Перевод: Профессиональный (многоголосый, закадровый) [MEGOGO] Официальный звук!

Файл
Формат: MKV
Качество: BDRip-AVC
Видео: MPEG-4 AVC, 1024x428 (2.40:1), 1410 Kbit/s, 24.000 fps, 0,134 bpp
Аудио1: 48 kHz, AC3, 2.0 ch, 192 Kbps | RUS
Аудио2: 48 kHz, AC3, 5.1 ch, 448 Kbps | ENG
Субтитры: Английские

Навигация по главам: есть

General
Unique ID : 178206947567859876689318000778823776276 (0x861168DF99D39E41AAC1BB9926BAB814)
Complete name : D:Lady.Macbeth.2016.MVO.BDRip.AVC.ExKinoRay.mkv
Format : Matroska
Format version : Version 2
File size : 1.27 GiB
Duration : 1 h 28 min
Overall bit rate : 2 051 kb/s
Movie name : Lady Macbeth 2016 from ExKinoRay
Encoded date : UTC 2017-09-24 05:30:58
Writing application : mkvmerge v5.6.0 ('Kenya Kane') built on May 27 2012 16:44:04
Writing library : libebml v1.2.3 + libmatroska v1.3.0

Video
ID : 1
Format : AVC
Format/Info : Advanced Video Codec
Format profile : High@L4.1
Format settings, CABAC : Yes
Format settings, ReFrames : 12 frames
Codec ID : V_MPEG4/ISO/AVC
Duration : 1 h 28 min
Bit rate : 1 410 kb/s
Width : 1 024 pixels
Height : 428 pixels
Display aspect ratio : 2.40:1
Frame rate mode : Constant
Frame rate : 24.000 FPS
Color space : YUV
Chroma subsampling : 4:2:0
Bit depth : 8 bits
Scan type : Progressive
Bits/(Pixel*Frame) : 0.134
Stream size : 871 MiB (67%)
Title : Enigma
Writing library : x264 core 144 r2525 40bb568
Encoding settings : cabac=1 / ref=12 / deblock=1:-2:-2 / analyse=0x3:0x113 / me=umh / subme=10 / psy=1 / psy_rd=1.00:0.05 / mixed_ref=1 / me_range=32 / chroma_me=1 / trellis=2 / 8x8dct=1 / cqm=0 / deadzone=21,11 / fast_pskip=1 / chroma_qp_offset=-3 / threads=12 / lookahead_threads=3 / sliced_threads=0 / nr=0 / decimate=0 / interlaced=0 / bluray_compat=0 / constrained_intra=0 / bframes=10 / b_pyramid=2 / b_adapt=2 / b_bias=0 / direct=3 / weightb=1 / open_gop=0 / weightp=2 / keyint=240 / keyint_min=24 / scenecut=40 / intra_refresh=0 / rc_lookahead=40 / rc=2pass / mbtree=0 / bitrate=1410 / ratetol=1.0 / qcomp=0.65 / qpmin=0 / qpmax=51 / qpstep=4 / cplxblur=20.0 / qblur=0.5 / vbv_maxrate=50000 / vbv_bufsize=62500 / nal_hrd=none / filler=0 / ip_ratio=1.40 / pb_ratio=1.30 / aq=1:1.00
Language : English
Default : Yes
Forced : No
Color range : Limited
Color primaries : BT.709
Transfer characteristics : BT.709
Matrix coefficients : BT.709

Audio #1
ID : 2
Format : AC-3
Format/Info : Audio Coding 3
Mode extension : CM (complete main)
Format settings, Endianness : Big
Codec ID : A_AC3
Duration : 1 h 28 min
Bit rate mode : Constant
Bit rate : 192 kb/s
Channel(s) : 2 channels
Channel positions : Front: L R
Sampling rate : 44.1 kHz
Frame rate : 28.711 FPS (1536 spf)
Compression mode : Lossy
Stream size : 122 MiB (9%)
Title : MVO [MEGOGO]
Language : Russian
Default : Yes
Forced : No

Audio #2
ID : 3
Format : AC-3
Format/Info : Audio Coding 3
Mode extension : CM (complete main)
Format settings, Endianness : Big
Codec ID : A_AC3
Duration : 1 h 28 min
Bit rate mode : Constant
Bit rate : 448 kb/s
Channel(s) : 6 channels
Channel positions : Front: L C R, Side: L R, LFE
Sampling rate : 48.0 kHz
Frame rate : 31.250 FPS (1536 spf)
Compression mode : Lossy
Stream size : 285 MiB (22%)
Language : English
Default : No
Forced : No

Text
ID : 4
Format : UTF-8
Codec ID : S_TEXT/UTF8
Codec ID/Info : UTF-8 Plain Text
Language : English
Default : No
Forced : No

Menu
00:00:00.000 : en:Chapter 1
00:07:14.416 : en:Chapter 2
00:14:33.833 : en:Chapter 3
00:21:09.500 : en:Chapter 4
00:27:14.541 : en:Chapter 5
00:36:44.250 : en:Chapter 6
00:45:23.833 : en:Chapter 7
00:55:37.041 : en:Chapter 8
01:02:31.625 : en:Chapter 9
01:11:11.458 : en:Chapter 10
01:18:23.000 : en:Chapter 11
01:24:46.500 : en:Chapter 12



Релиз от: Автор релиза:


_________________
Проголосуй за трекер Открытый торрент трекер - RUS-MEDIA.ORG

Проголосуй Открытый торрент трекер - RUS-MEDIA.ORG


Вернуться к началу
 Профиль Отправить личное сообщение  
 
   Похожие торренты   Автор   Торрент   Размер 
В этой теме нет новых непрочитанных сообщений. Леди Макбет / Lady Macbeth [драма, экранизация, 2016] BDRip, Mvo [iTunes]

salma3

0 | 0

1.42 ГБ

В этой теме нет новых непрочитанных сообщений. Леди Макбет / Lady Macbeth [Драма, 2016] BDRip 720p, Mvo [iTunes]

salma3

70 | 24

4.4 ГБ

В этой теме нет новых непрочитанных сообщений. Леди Макбет / Lady Macbeth [Драма, 2016] BDRip 1080p, Mvo [iTunes]

salma3

68 | 41

8.64 ГБ

В этой теме нет новых непрочитанных сообщений. Макбет / Macbeth [Драма, военный, 2015] BDRip, dub [лицензия]

Dracon

275 | 6

1.46 ГБ

В этой теме нет новых непрочитанных сообщений. Макбет / Macbeth [Драма, военный, 2015] BDRip 720p, dub [iTunes]

Dracon

64 | 9

3.99 ГБ

В этой теме нет новых непрочитанных сообщений. Макбет / The Tragedy of Macbeth [драма, военный, биография, история, 1971] BDRip, Mvo

salma3

21 | 1

1.45 ГБ

В этой теме нет новых непрочитанных сообщений. Макбет / Macbeth [драма, 2018] WEBDLRip, Mvo

salma3

238 | 79

1.45 ГБ


Начать новую тему Ответить на тему  [ 1 сообщение ] 




Для Мосгорсуда, Роскомнадзора и рекламодателей:: mosgorsud-torrent[собачка]yandex.ru
cron