Торрент файл
скачать торрент магнет ссылка Добавлен: 24 сен 2017, 11:36
Размер: 2.76 ГБ
Сидеров: 17
Личеров: 3
Статус: (salma3)
Автор

СообщениеДобавлено: 24 сен 2017, 11:36 

Не в сети
Супермодератор
Аватара пользователя
Дата регистрации:
15 фев 2012, 16:44
Возраст: 28
Спасибо: 6640 / 2146
Сообщения: 45613
Год выхода: 1974
Жанр: боевик, комедия
Режиссер: Марчелло Фондато

В ролях: Теренс Хилл, Бад Спенсер, Пэтти Шепард, Деогратиас Уэрта, Джон Шарп, Мануэль де Блас, Луис Барберо, Дональд Плезенс, Эмилио Лагуна, Рафаэль Альбачин

О фильме:
Жил да был один мафиози местного значения. И задумал он, по совету своего верного психолога, возвыситься, разорив беззащитный парк аттракционов и построив на его месте огромный небоскрёб. И всё бы у него получилось, если бы под горячую руку распоясавшихся рэкетиров не попалась дюна-багги, любимый автомобиль двух приятелей - голубоглазого красавца и медведоподобного толстяка. И всё бы ничего, ведь каждый может ошибиться, так нет же! Загордился мафиози, заупрямился, несчастный, на свою голову, не захотел платить по счетам!..



Страна: Италия, Испания, Capital Films, Filmayer S.A., Rizzoli Film S.p.a.
Продолжительность: 01:41:43
Перевод: Профессиональный [двухголосый]

Файл
Кодек: x264
Качество: BDRip-AVC
Видео: MPEG-4 AVC, 3495 Кбит/с, 1024x576, 23.976 кадр/с
Аудио #1: AC3, 2 ch, 192 Кбит/с | Русский
Аудио #2: AC3, 2 ch, 192 Кбит/с | Итальянский


Общее
Уникальный идентификатор : 185538472879895188671524963912963082195 (0x8B9568FAB5B103D19BE03B7973AC47D3)
Полное имя : Watch.Out.We're.Mad.1974.BDRip-AVC.mkv
Формат : Matroska
Версия формата : Version 4 / Version 2
Размер файла : 2,76 Гбайт
Продолжительность : 1 ч. 41 м.
Общий поток : 3880 Кбит/сек
Название фильма : Watch.Out.We're.Mad.1974.BDRip-AVC by Koenig
Дата кодирования : UTC 2017-09-24 06:46:46
Программа кодирования : mkvmerge v12.0.0 ('Trust / Lust') 32bit
Библиотека кодирования : libebml v1.3.4 + libmatroska v1.4.5
Обложка : Yes
Attachments : cover.jpg

Видео
Идентификатор : 1
Формат : AVC
Формат/Информация : Advanced Video Codec
Профиль формата : High@L4.1
Параметр CABAC формата : Да
Параметр ReFrames формата : 10 кадров
Идентификатор кодека : V_MPEG4/ISO/AVC
Продолжительность : 1 ч. 41 м.
Битрейт : 3495 Кбит/сек
Ширина : 1024 пикселя
Высота : 576 пикселей
Соотношение сторон : 16:9
Режим частоты кадров : Постоянный
Частота кадров : 23,976 (24000/1001) кадра/сек
Цветовое пространство : YUV
Субдискретизация насыщенности : 4:2:0
Битовая глубина : 8 бит
Тип развёртки : Прогрессивная
Бит/(Пиксели*Кадры) : 0.247
Размер потока : 2,48 Гбайт (90%)
Заголовок : Watch.Out.We're.Mad.1974.BDRip-AVC
Библиотека кодирования : x264 core 148 r2744 b97ae06
Настройки программы : cabac=1 / ref=10 / deblock=1:-3:-3 / analyse=0x3:0x133 / me=umh / subme=10 / psy=1 / psy_rd=1.00:0.15 / mixed_ref=1 / me_range=32 / chroma_me=1 / trellis=2 / 8x8dct=1 / cqm=0 / deadzone=21,11 / fast_pskip=0 / chroma_qp_offset=-3 / threads=3 / lookahead_threads=1 / sliced_threads=0 / nr=0 / decimate=1 / interlaced=0 / bluray_compat=0 / constrained_intra=0 / bframes=10 / b_pyramid=2 / b_adapt=2 / b_bias=0 / direct=3 / weightb=1 / open_gop=0 / weightp=2 / keyint=240 / keyint_min=23 / scenecut=40 / intra_refresh=0 / rc_lookahead=40 / rc=2pass / mbtree=1 / bitrate=3495 / ratetol=1.0 / qcomp=0.60 / qpmin=10 / qpmax=51 / qpstep=4 / cplxblur=20.0 / qblur=0.5 / vbv_maxrate=50000 / vbv_bufsize=62500 / nal_hrd=none / filler=0 / ip_ratio=1.40 / aq=1:1.00
Default : Да
Forced : Нет

Аудио #1
Идентификатор : 2
Формат : AC-3
Формат/Информация : Audio Coding 3
Параметр Endianness формата : Big
Идентификатор кодека : A_AC3
Продолжительность : 1 ч. 41 м.
Вид битрейта : Постоянный
Битрейт : 192 Кбит/сек
Каналы : 2 канала
Расположение каналов : Front: L R
Частота : 48,0 КГц
Частота кадров : 31,250 кадров/сек (1536 spf)
Битовая глубина : 16 бит
Метод сжатия : С потерями
Размер потока : 140 Мбайт (5%)
Заголовок : DVO
Язык : Russian
ServiceKind/String : Complete Main
Default : Да
Forced : Нет

Аудио #2
Идентификатор : 3
Формат : AC-3
Формат/Информация : Audio Coding 3
Параметр Endianness формата : Big
Идентификатор кодека : A_AC3
Продолжительность : 1 ч. 41 м.
Вид битрейта : Постоянный
Битрейт : 192 Кбит/сек
Каналы : 2 канала
Расположение каналов : Front: L R
Частота : 48,0 КГц
Частота кадров : 31,250 кадров/сек (1536 spf)
Битовая глубина : 16 бит
Метод сжатия : С потерями
Размер потока : 140 Мбайт (5%)
Заголовок : Original
Язык : Italian
ServiceKind/String : Complete Main
Default : Нет
Forced : Нет

Меню
00:00:00.000 : en:00:00:00.000
00:13:14.419 : en:00:13:14.419
00:27:58.594 : en:00:27:58.594
00:41:37.954 : en:00:41:37.954
00:52:57.424 : en:00:52:57.424
01:05:55.827 : en:01:05:55.827
01:23:48.899 : en:01:23:48.899
01:34:27.245 : en:01:34:27.245



_________________
Проголосуй за трекер Открытый торрент трекер - RUS-MEDIA.ORG

Проголосуй Открытый торрент трекер - RUS-MEDIA.ORG



реклама партнёра


Вернуться к началу
 Профиль Отправить личное сообщение  
 
   Похожие торренты   Автор   Торрент   Размер 
В этой теме нет новых непрочитанных сообщений. ...иначе мы рассердимся / ...altrimenti ci arrabbiamo! [Боевик, комедия, 1974] BDRip, Dvo

salma3

62 | 2

1.63 ГБ

В этой теме нет новых непрочитанных сообщений. Человек с золотым пистолетом / The Man with the Golden Gun [боевик, триллер, комедия, 1974] BDRip-AVC, Mvo

salma3

27 | 21

2.35 ГБ

В этой теме нет новых непрочитанных сообщений. Нехорошая мамаша / Скверная мама / Big Bad Mama [боевик, драма, комедия, 1974] BDRip 1080p, Avo

salma3

17 | 2

7.74 ГБ

В этой теме нет новых непрочитанных сообщений. Красный райдинг 1974 / Red Riding 1974 [детектив, 2009] BDRip 720p, Dvo+Sub

salma3

83 | 9

4.04 ГБ

В этой теме нет новых непрочитанных сообщений. Вздымающийся ад / The Towering Inferno [боевик, 1974] BDRip 1080p, Mvo+Avo+Sub

salma3

7 | 6

15.09 ГБ

В этой теме нет новых непрочитанных сообщений. Якудза / The Yakuza [боевик, триллер, драма, криминал, 1974] BDRip 720p, Dvo+Sub [НТВ]

salma3

75 | 56

6.71 ГБ

В этой теме нет новых непрочитанных сообщений. Вальсирующие / Les valseuses [драма, комедия, 1974] BDRip, Mvo+Sub

salma3

36 | 45

2.19 ГБ


Начать новую тему Ответить на тему  [ 1 сообщение ] 




Для Мосгорсуда, Роскомнадзора и рекламодателей:: mosgorsud-torrent[собачка]yandex.ru