Торрент файл
скачать торрент магнет ссылка Добавлен: 22 сен 2017, 20:40
Размер: 2.57 ГБ
Сидеров: 17
Личеров: 3
Статус: (salma3)
Автор

СообщениеДобавлено: 22 сен 2017, 20:40 

Не в сети
Супермодератор
Аватара пользователя
Дата регистрации:
15 фев 2012, 16:44
Возраст: 28
Спасибо: 6563 / 2129
Сообщения: 43556
Год выхода: 2004
Жанр: ужасы, драма
Режиссер: Грант Харви

В ролях: Кэтрин Изабель, Эмили Перкинс, Натаниель Арканд, ДжейАр Борн, Хью Диллон, Эдриан Дорваль, Брендан Флетчер, Давид Ла Эй, Том МакКэмус, Мэттью Уолкер, ...

О фильме: Канада. XIX век. Две сестры находят прибежище в отдаленном форте, который становится их единственной надеждой на спасение от многочисленных оборотней, напавших на город…



Страна: Канада
Продолжительность: 01:34:29
Перевод: Профессиональный (двухголосый, закадровый) R5 от «Союз-Видео»

Кодек: x264
Качество: DVDRip-AVC
Видео: 852x480, 3000 kbps, 23,976 fps
Аудио #1: AC-3, 6 ch, 448 kbps (Rus) - DVO R5 «Союз-Видео»
Аудио #2: AC-3, 6 ch, 448 kbps (Eng)
Субтитры: английские


За исходник спасибо - petropetroff
x264 [info]: frame I:1018 Avg QP:13.20 size: 60517
x264 [info]: frame P:28298 Avg QP:15.53 size: 27944
x264 [info]: frame B:106608 Avg QP:17.70 size: 11936
x264 [info]: consecutive B-frames: 2.0% 2.7% 7.0% 11.1% 13.2% 57.7% 4.6% 0.5% 0.3% 0.2% 0.1% 0.1% 0.4%

Общее
Уникальный идентификатор : 249339314087890067270927123264700244803 (0xBB9501504C04AB33B87C16EB58CD6343)
Полное имя : Рождение оборотня (Ginger Snaps Back The Beginning) 2004 DVDRip.mkv
Формат : Matroska
Версия формата : Version 2
Размер файла : 2,57 Гбайт
Продолжительность : 1 ч. 34 м.
Общий поток : 3896 Кбит/сек
Дата кодирования : UTC 2017-09-16 20:05:21
Программа кодирования : mkvmerge v4.0.0 ('The Stars were mine') сборка от Jun 6 2010 16:18:42
Библиотека кодирования : libebml v1.0.0 + libmatroska v1.0.0

Видео
Идентификатор : 1
Формат : AVC
Формат/Информация : Advanced Video Codec
Профиль формата : High@L4.1
Параметр CABAC формата : Да
Параметр ReFrames формата : 12 кадров
Идентификатор кодека : V_MPEG4/ISO/AVC
Продолжительность : 1 ч. 34 м.
Битрейт : 3000 Кбит/сек
Ширина : 852 пикселя
Высота : 480 пикселей
Соотношение сторон : 16:9
Режим частоты кадров : Постоянный
Частота кадров : 23,976 (24000/1001) кадра/сек
Цветовое пространство : YUV
Субдискретизация насыщенности : 4:2:0
Битовая глубина : 8 бит
Тип развёртки : Прогрессивная
Бит/(Пиксели*Кадры) : 0.306
Размер потока : 1,93 Гбайт (75%)
Библиотека кодирования : x264 core 146 r2538 121396c
Настройки программы : cabac=1 / ref=12 / deblock=1:-1:-1 / analyse=0x3:0x133 / me=umh / subme=11 / psy=1 / psy_rd=1.00:0.00 / mixed_ref=1 / me_range=32 / chroma_me=1 / trellis=2 / 8x8dct=1 / cqm=0 / deadzone=21,11 / fast_pskip=0 / chroma_qp_offset=-2 / threads=12 / lookahead_threads=2 / sliced_threads=0 / nr=0 / decimate=0 / interlaced=0 / bluray_compat=0 / constrained_intra=0 / bframes=12 / b_pyramid=2 / b_adapt=2 / b_bias=0 / direct=3 / weightb=1 / open_gop=0 / weightp=2 / keyint=240 / keyint_min=23 / scenecut=40 / intra_refresh=0 / rc=2pass / mbtree=0 / bitrate=3000 / ratetol=1.0 / qcomp=0.60 / qpmin=0 / qpmax=69 / qpstep=4 / cplxblur=20.0 / qblur=0.5 / ip_ratio=1.40 / pb_ratio=1.30 / aq=3:0.80
Язык : English
Default : Нет
Forced : Нет

Аудио #1
Идентификатор : 2
Формат : AC-3
Формат/Информация : Audio Coding 3
Расширение режима : CM (complete main)
Параметр Endianness формата : Big
Идентификатор кодека : A_AC3
Продолжительность : 1 ч. 34 м.
Вид битрейта : Постоянный
Битрейт : 448 Кбит/сек
Каналы : 6 каналов
Расположение каналов : Front: L C R, Side: L R, LFE
Частота : 48,0 КГц
Частота кадров : 31,250 кадров/сек (1536 spf)
Метод сжатия : С потерями
Размер потока : 303 Мбайт (11%)
Заголовок : DVO R5 «Союз-Видео»
Язык : Russian
Default : Нет
Forced : Нет

Аудио #2
Идентификатор : 3
Формат : AC-3
Формат/Информация : Audio Coding 3
Расширение режима : CM (complete main)
Параметр Endianness формата : Big
Идентификатор кодека : A_AC3
Продолжительность : 1 ч. 34 м.
Вид битрейта : Постоянный
Битрейт : 448 Кбит/сек
Каналы : 6 каналов
Расположение каналов : Front: L C R, Side: L R, LFE
Частота : 48,0 КГц
Частота кадров : 31,250 кадров/сек (1536 spf)
Метод сжатия : С потерями
Размер потока : 303 Мбайт (11%)
Язык : English
Default : Нет
Forced : Нет

Текст
Идентификатор : 4
Формат : UTF-8
Идентификатор кодека : S_TEXT/UTF8
Идентификатор кодека/Информация : UTF-8 Plain Text
Язык : English
Default : Нет
Forced : Нет


_________________
Проголосуй за трекер Открытый торрент трекер - RUS-MEDIA.ORG

Проголосуй Открытый торрент трекер - RUS-MEDIA.ORG



реклама партнёра


Вернуться к началу
 Профиль Отправить личное сообщение  
 
   Похожие торренты   Автор   Торрент   Размер 
В этой теме нет новых непрочитанных сообщений. Изгоняющий дьявола: Начало / Exorcist: The Beginning [ужасы, триллер, детектив, 2004] HDTVRip, Mvo

salma3

186 | 12

1.45 ГБ

В этой теме нет новых непрочитанных сообщений. [MilfHunter.com / RealityKings.com] Ginger Allen ( Juicy ginger / 26.04.15) [2015 г., All Sex, MILF, 576p]

friizze

0 | 1

758.69 МБ

В этой теме нет новых непрочитанных сообщений. [MilfHunter.com / RealityKings.com] Ginger Allen ( Juicy ginger / 26.04.15) [2015 г., All Sex, MILF, 432p]

friizze

16 | 1

330.15 МБ

В этой теме нет новых непрочитанных сообщений. Охота на оборотня / Wolf Girl [фэнтези, триллер, драма, 2001] DVDRip, Mvo

salma3

128 | 44

674.09 МБ

В этой теме нет новых непрочитанных сообщений. Воскрешение оборотня / Werewolf Rising [Ужасы, Триллер, 2014] BDRip 1080p, Mvo

salma3

50 | 25

7.35 ГБ

В этой теме нет новых непрочитанных сообщений. Вернись ко мне / Come Back to Me [ужасы, 2014] DVDRip, Avo

salma3

441 | 16

746.16 МБ

В этой теме нет новых непрочитанных сообщений. Повторное прослушивание / Call Back [Ужасы, триллер, 2009] DVDRip, Dvo

salma3

120 | 36

747.86 МБ


Начать новую тему Ответить на тему  [ 1 сообщение ] 




Для Мосгорсуда, Роскомнадзора и рекламодателей:: mosgorsud-torrent[собачка]yandex.ru