Торрент файл
скачать торрент магнет ссылка Добавлен: 18 сен 2017, 11:07
Размер: 745.67 МБ
Сидеров: 47
Личеров: 11
Статус: (salma3)
Автор

СообщениеДобавлено: 18 сен 2017, 11:07 

В сети
Супермодератор
Аватара пользователя
Дата регистрации:
15 фев 2012, 16:44
Возраст: 28
Спасибо: 7060 / 2147
Сообщения: 59015
Год выхода: 2002
Режиссер: Комедия, фэнтези
Режиссер: Том Брэди

В ролях: Роб Шнайдер, Анна Фэрис, Рэйчел МакАдамс, Адам Сэндлер, Мэттью Лоуренс, Эрик Кристиан Олсен, Роберт Дави, Мелора Хардин, Александра Холден, Марица Мюррэй, Фэй Хаузер

О фильме :
Однажды проснувшись, популярная, но довольно неприятная в общении примадонна средней школы, понимает, что она стала… 30-летним мужчиной, мягко выражаясь, совсем не фотомодельного вида. Во время того, как она пробует выяснить, почему это случилось и как, черт возьми, она может вернуть свой прежний облик, девушка начинает понимать насколько поверхностной и недалекой она была раньше…



Страна: США
Продолжительность: 01:44:22
Перевод: Профессиональный (дублированный)

Файл
Формат: MKV
Качество: HDTVRip-AVC
Видео: MPEG-4 AVC, 720x408, ~ 925 Кбит/с
Аудио: AAC-LC, 2 ch, ~72 Кбит/с

Общее
Уникальный идентификатор : 236829750444274196053713288202290574051 (0xB22BC035198B6859873630E98C35B2E3)
Полное имя : D:MOVIESThe Hot Chick.2002.ExKinoRay.mkv
Формат : Matroska
Версия формата : Version 4 / Version 2
Размер файла : 746 Мбайт
Продолжительность : 1 ч. 44 м.
Общий поток : 999 Кбит/сек
Дата кодирования : UTC 2017-09-18 06:13:23
Программа кодирования : mkvmerge v15.0.0 ('Duel with the Devil') 64-bit
Библиотека кодирования : libebml v1.3.5 + libmatroska v1.4.5

Видео
Идентификатор : 1
Формат : AVC
Формат/Информация : Advanced Video Codec
Профиль формата : High@L4.1
Параметр CABAC формата : Да
Параметр RefFrames формата : 10 кадров
Идентификатор кодека : V_MPEG4/ISO/AVC
Продолжительность : 1 ч. 44 м.
Битрейт : 925 Кбит/сек
Ширина : 720 пикселей
Высота : 408 пикселей
Соотношение сторон : 16:9
Режим частоты кадров : Постоянный
Частота кадров : 23,976 (24000/1001) кадра/сек
Цветовое пространство : YUV
Субдискретизация насыщенности : 4:2:0
Битовая глубина : 8 бит
Тип развёртки : Прогрессивная
Бит/(Пиксели*Кадры) : 0.131
Размер потока : 690 Мбайт (93%)
Библиотека кодирования : x264 core 152 r2851kMod ba24899
Настройки программы : cabac=1 / ref=10 / deblock=1:-2:-2 / analyse=0x3:0x113 / me=umh / subme=11 / psy=1 / fade_compensate=0.00 / psy_rd=1.00:0.05 / mixed_ref=1 / me_range=32 / chroma_me=1 / trellis=2 / 8x8dct=1 / cqm=0 / deadzone=21,11 / fast_pskip=0 / chroma_qp_offset=-3 / threads=6 / lookahead_threads=1 / sliced_threads=0 / nr=0 / decimate=0 / interlaced=0 / bluray_compat=0 / constrained_intra=0 / bframes=10 / b_pyramid=2 / b_adapt=2 / b_bias=0 / direct=3 / weightb=1 / open_gop=0 / weightp=2 / keyint=240 / keyint_min=23 / scenecut=40 / intra_refresh=0 / rc_lookahead=40 / rc=2pass / mbtree=1 / bitrate=925 / ratetol=1.0 / qcomp=0.60 / qpmin=0 / qpmax=69 / qpstep=4 / cplxblur=20.0 / qblur=0.5 / vbv_maxrate=50000 / vbv_bufsize=62500 / nal_hrd=none / filler=0 / ip_ratio=1.40 / aq=3:1.00
Default : Да
Forced : Нет

Аудио
Идентификатор : 2
Формат : AAC
Формат/Информация : Advanced Audio Codec
Профиль формата : LC
Идентификатор кодека : A_AAC
Продолжительность : 1 ч. 44 м.
Битрейт : 72,0 Кбит/сек
Каналы : 2 канала
Расположение каналов : Front: L R
Частота : 48,0 КГц
Частота кадров : 46,875 кадров/сек (1024 SPF)
Метод сжатия : С потерями
Задержка видео : 9 мс.
Размер потока : 53,7 Мбайт (7%)
Default : Да
Forced : Нет

Релиз от:


_________________
Проголосуй за трекер Открытый торрент трекер - RUS-MEDIA.ORG

Проголосуй Открытый торрент трекер - RUS-MEDIA.ORG


Вернуться к началу
 Профиль Отправить личное сообщение  
 
   Похожие торренты   Автор   Торрент   Размер 
В этой теме нет новых непрочитанных сообщений. Цыпочка / The Hot Chick [фэнтези, комедия, 2002] WEB-DL 1080p, Dub

salma3

43 | 19

4.73 ГБ

В этой теме нет новых непрочитанных сообщений. Цыпочка / The Hot Chick [фэнтези, комедия, 2002] WEB-DLRip-AVC, Dub+Dvo+Avo

salma3

75 | 10

2.17 ГБ

В этой теме нет новых непрочитанных сообщений. Трасса 60 / Interstate 60 [Фэнтези, комедия, приключения, 2002] WEB-DLRip 720p, Dvo

salma3

0 | 0

9.45 ГБ

В этой теме нет новых непрочитанных сообщений. Бабба Хо-Теп / Bubba Ho-Tep [фэнтези, комедия, детектив, 2002] BDRip 1080p, Mvo

salma3

71 | 21

11.15 ГБ

В этой теме нет новых непрочитанных сообщений. Трасса 60 / Interstate 60 [Фэнтези, комедия, приключения, 2002] WEB-DLRip 720p, Dvo

salma3

0 | 0

10.51 ГБ

В этой теме нет новых непрочитанных сообщений. Призрачная команда / The Scream Team [Комедия, фэнтези, семейный, 2002] WEBRip 720p, Mvo+Sub

salma3

139 | 48

3.2 ГБ

В этой теме нет новых непрочитанных сообщений. Высший пилотаж / Spun [Драма, криминал, комедия, 2002] HDTVRip 720p, Mvo

salma3

32 | 2

4 ГБ


Начать новую тему Ответить на тему  [ 1 сообщение ] 




Для Мосгорсуда, Роскомнадзора и рекламодателей:: mosgorsud-torrent[собачка]yandex.ru
cron