Торрент файл
скачать торрент магнет ссылка Добавлен: 16 сен 2017, 12:18
Размер: 745.74 МБ
Сидеров: 35
Личеров: 6
Статус: (salma3)
Автор

СообщениеДобавлено: 16 сен 2017, 12:18 

Не в сети
Супермодератор
Аватара пользователя
Дата регистрации:
15 фев 2012, 16:44
Возраст: 28
Спасибо: 7060 / 2147
Сообщения: 59074
Год выхода: 2002
Жанр: Триллер, драма, криминал
Режиссер: Майкл Эптид

В ролях: Дженнифер Лопес, Билл Кэмпбелл, Тесса Аллен, Джульетт Льюис, Дэн Футтерман, Ноа Уайли, Фред Уорд, Джанет Кэрролл, Билл Коббс, Кристофер Мехер, Брюс А. Янг, Брюс Френч, Рубен Мадера, Дэн Мартин, Джефф Кобер, Брент Секстон, Майкл П. Бирн, Лейф Ридделл, Риган Форман, Сандра Нельсон, Линн Мари Стюарт

О фильме :
Жизнь официантки Слим коренным образом меняется, когда она встречает богатого незнакомца Митча. Они влюбляются, женятся, покупают красивый домик и у них рождается дочка. Но восхитительной счастливой новой жизни Слим тоже приходит конец. Ее муж далеко не совершенство, и Слим узнает о его изменах. Оскорбленная поведением мужа, Слим пытается убежать от него, а ожесточившийся Митч теперь представляет смертельную угрозу ей и ее пятилетней дочери. Скрываясь от мужа, Слим решает принять серьезные меры. Она прячет дочь, а сама меняется морально и физически, намереваясь показать Митчу, что с нее довольно.



Страна: США
Продолжительность: 01:50:32
Перевод: Профессиональный (полное дублирование)

Файл
Формат: MKV
Качество: HDTVRip-AVC
Видео: MPEG-4 AVC, 768x328, ~ 869 Кбит/с
Аудио: AAC-LC, 2 ch, ~72 Кбит/с
Субтитры: Русские, английские

Общее
Уникальный идентификатор : 210881128266202386127661315744055502757 (0x9EA63A5BCF46E382A57CCF182AA927A5)
Полное имя : D:MOVIESEnough.2002.ExKinoRay.mkv
Формат : Matroska
Версия формата : Version 4 / Version 2
Размер файла : 746 Мбайт
Продолжительность : 1 ч. 50 м.
Общий поток : 943 Кбит/сек
Дата кодирования : UTC 2017-09-15 19:28:37
Программа кодирования : mkvmerge v15.0.0 ('Duel with the Devil') 64-bit
Библиотека кодирования : libebml v1.3.5 + libmatroska v1.4.5

Видео
Идентификатор : 1
Формат : AVC
Формат/Информация : Advanced Video Codec
Профиль формата : High@L4.1
Параметр CABAC формата : Да
Параметр RefFrames формата : 10 кадров
Идентификатор кодека : V_MPEG4/ISO/AVC
Продолжительность : 1 ч. 50 м.
Битрейт : 869 Кбит/сек
Ширина : 768 пикселей
Высота : 328 пикселей
Соотношение сторон : 2,35:1
Режим частоты кадров : Постоянный
Частота кадров : 25,000 кадров/сек
Цветовое пространство : YUV
Субдискретизация насыщенности : 4:2:0
Битовая глубина : 8 бит
Тип развёртки : Прогрессивная
Бит/(Пиксели*Кадры) : 0.138
Размер потока : 687 Мбайт (92%)
Библиотека кодирования : x264 core 152 r2851kMod ba24899
Настройки программы : cabac=1 / ref=10 / deblock=1:-2:-2 / analyse=0x3:0x113 / me=umh / subme=11 / psy=1 / fade_compensate=0.00 / psy_rd=1.00:0.05 / mixed_ref=1 / me_range=32 / chroma_me=1 / trellis=2 / 8x8dct=1 / cqm=0 / deadzone=21,11 / fast_pskip=0 / chroma_qp_offset=-3 / threads=6 / lookahead_threads=1 / sliced_threads=0 / nr=0 / decimate=0 / interlaced=0 / bluray_compat=0 / constrained_intra=0 / bframes=10 / b_pyramid=2 / b_adapt=2 / b_bias=0 / direct=3 / weightb=1 / open_gop=0 / weightp=2 / keyint=250 / keyint_min=24 / scenecut=40 / intra_refresh=0 / rc_lookahead=40 / rc=2pass / mbtree=1 / bitrate=869 / ratetol=1.0 / qcomp=0.60 / qpmin=0 / qpmax=69 / qpstep=4 / cplxblur=20.0 / qblur=0.5 / vbv_maxrate=50000 / vbv_bufsize=62500 / nal_hrd=none / filler=0 / ip_ratio=1.40 / aq=3:1.00
Default : Да
Forced : Нет

Аудио
Идентификатор : 2
Формат : AAC
Формат/Информация : Advanced Audio Codec
Профиль формата : LC
Идентификатор кодека : A_AAC
Продолжительность : 1 ч. 50 м.
Битрейт : 72,0 Кбит/сек
Каналы : 2 канала
Расположение каналов : Front: L R
Частота : 48,0 КГц
Частота кадров : 46,875 кадров/сек (1024 SPF)
Метод сжатия : С потерями
Задержка видео : 9 мс.
Размер потока : 56,9 Мбайт (8%)
Default : Да
Forced : Нет

Текст #1
Идентификатор : 3
Формат : UTF-8
Идентификатор кодека : S_TEXT/UTF8
Идентификатор кодека/Информация : UTF-8 Plain Text
Продолжительность : 1 ч. 50 м.
Битрейт : 69 бит/сек
ElementCount : 1069
Размер потока : 56,1 Кбайт (0%)
Заголовок : DVD
Язык : Russian
Default : Нет
Forced : Нет

Текст #2
Идентификатор : 4
Формат : UTF-8
Идентификатор кодека : S_TEXT/UTF8
Идентификатор кодека/Информация : UTF-8 Plain Text
Продолжительность : 1 ч. 45 м.
Битрейт : 44 бит/сек
ElementCount : 1037
Размер потока : 34,6 Кбайт (0%)
Заголовок : DVD
Язык : English
Default : Нет
Forced : Нет

Меню
00:00:00.000 : :Chapter 01
00:02:40.560 : :Chapter 02
00:04:23.880 : :Chapter 03
00:06:38.480 : :Chapter 04
00:09:43.600 : :Chapter 05
00:12:02.560 : :Chapter 06
00:13:39.240 : :Chapter 07
00:17:18.560 : :Chapter 08
00:22:52.360 : :Chapter 09
00:25:50.840 : :Chapter 10
00:27:27.640 : :Chapter 11
00:28:40.880 : :Chapter 12
00:34:40.320 : :Chapter 13
00:39:52.720 : :Chapter 14
00:45:28.840 : :Chapter 15
00:48:07.720 : :Chapter 16
00:52:14.920 : :Chapter 17
00:54:06.480 : :Chapter 18
00:56:57.080 : :Chapter 19
00:59:47.720 : :Chapter 20
01:02:44.640 : :Chapter 21
01:06:54.520 : :Chapter 22
01:12:04.600 : :Chapter 23
01:18:55.000 : :Chapter 24
01:30:42.080 : :Chapter 25
01:37:34.560 : :Chapter 26
01:42:03.480 : :Chapter 27
01:44:53.920 : :Chapter 28



Релиз от:


_________________
Проголосуй за трекер Открытый торрент трекер - RUS-MEDIA.ORG

Проголосуй Открытый торрент трекер - RUS-MEDIA.ORG


Вернуться к началу
 Профиль Отправить личное сообщение  
 
   Похожие торренты   Автор   Торрент   Размер 
В этой теме нет новых непрочитанных сообщений. С меня хватит / Enough [Триллер, Боевик, Драма, 2002] DVDRip-AVC, Dub

salma3

18 | 1

2.88 ГБ

В этой теме нет новых непрочитанных сообщений. С меня хватит! / Falling Down [триллер, драма, криминал, 1993] HDRip-AVC, Mvo

salma3

63 | 14

745.88 МБ

В этой теме нет новых непрочитанных сообщений. С меня хватит! / Falling Down [триллер, драма, криминал, 1993] BDRip 1080p, Mvo

salma3

22 | 11

9.49 ГБ

В этой теме нет новых непрочитанных сообщений. С меня хватит! / Falling Down [Триллер, драма, криминал, 1993] BDRip 720p, Mvo

salma3

29 | 4

7.84 ГБ

В этой теме нет новых непрочитанных сообщений. С меня хватит! / Falling Down [триллер, драма, криминал, 1993] BDRemux 1080p, Dub

salma3

10 | 0

18.19 ГБ

В этой теме нет новых непрочитанных сообщений. Море Солтона / The Salton Sea [Триллер, драма, криминал, детектив, 2002] HDTVRip 720p, Mvo+Sub

salma3

118 | 0

4.36 ГБ

В этой теме нет новых непрочитанных сообщений. Высший пилотаж / Spun [Драма, криминал, комедия, 2002] HDTVRip 720p, Mvo

salma3

32 | 2

4 ГБ


Начать новую тему Ответить на тему  [ 1 сообщение ] 




Для Мосгорсуда, Роскомнадзора и рекламодателей:: mosgorsud-torrent[собачка]yandex.ru
cron