Торрент файл
скачать торрент магнет ссылка Добавлен: 15 сен 2017, 01:50
Размер: 1.45 ГБ
Сидеров: 23
Личеров: 7
Статус: (salma3)
Автор

СообщениеДобавлено: 15 сен 2017, 01:50 

Не в сети
Супермодератор
Аватара пользователя
Дата регистрации:
15 фев 2012, 16:44
Возраст: 29
Спасибо: 7379 / 2147
Сообщения: 76148
Год выпуска: 1988
Жанр: боевик, триллер
Режиссер: Ренни Харлин / Renny Harlin

В ролях: Брюс Уиллис, Бонни Беделиа, Уильям Этертон, Реджинальд ВелДжонсон, Франко Неро, Уильям Сэдлер, Джон Эймос, Деннис Франц, Арт Эванс, Фред Долтон Томпсон, Том Бауэр, Шила МакКарти, Дон Харви

Описание:
В канун Рождества группа террористов захватила международный аэропорт и теперь удерживает тысячи путешествующих в качестве заложников. Террористы — банда отступников из первоклассно вооруженных коммандос, возглавляемых одержимым жестокостью офицером. Их цель — спасти наркобарона. Банда подготовлена ко всевозможным случайностям, за исключением одной — встречи с Джоном Макклейном. Брюс Уиллис возвращается в роли супергероя-полицейского, который сражается не только с террористами, но и с некомпетентным шефом полиции аэропорта, тупоголовым начальником антитеррористического подразделения и страшным снежным бураном. Заложники мечутся, смертельно испуганные и растерянные. А Джон Макклейн ведет схватку и со временем. Его жена находится в одном из самолетов, кружащих над аэропортом. А топливо — на пределе…



Страна: США
Продолжительность: 02:03:23
Перевод:Профессиональный (дублированный)

Качество: BDRip
Видео: 720x304 (2.37:1), 23.976 fps, XviD build 73 ~1486 kbps avg, 0.28 bit/pixel
Аудио: 48 kHz, AC3 Dolby Digital, 2/0 (L,R) ch, ~192 kbps

Общее
Полное имя : C:\Documents and Settings\Пользователь\Рабочий стол\Торрентс.ру\Die.Hard.2.1990.BDRip.Dub_by_LBS.avi
Формат : AVI
Формат/Информация : Audio Video Interleave
Размер файла : 1,45 Гбайт
Продолжительность : 2 ч. 3 м.
Общий поток : 1688 Кбит/сек
Режиссёр : Last Boy Scout
Программа кодирования : VirtualDubMod 1.5.10.3 | http://www.virtualdub-fr.org || (build 2550/release)
Правообладатель : rutracker.org 15.12.2013
Примечание : BDRip Dub
Видео
Идентификатор : 0
Формат : MPEG-4 Visual
Профиль формата : Advanced Simple@L5
Параметр BVOP формата : 1
Параметр QPel формата : Нет
Параметр GMC формата : Без точки перехода
Параметр матрицы формата : Выборочная
Идентификатор кодека : XVID
Идентификатор кодека/Подсказка : XviD
Продолжительность : 2 ч. 3 м.
Битрейт : 1487 Кбит/сек
Ширина : 720 пикселей
Высота : 304 пикселя
Соотношение сторон : 2,35:1
Частота кадров : 23,976 кадра/сек
Цветовое пространство : YUV
Субдискретизация насыщенности : 4:2:0
Битовая глубина : 8 бит
Тип развёртки : Прогрессивная
Метод сжатия : С потерями
Бит/(Пиксели*Кадры) : 0.283
Размер потока : 1,28 Гбайт (88%)
Библиотека кодирования : XviD 73
Аудио
Идентификатор : 1
Формат : AC-3
Формат/Информация : Audio Coding 3
Расширение режима : CM (complete main)
Параметр Endianness формата : Big
Идентификатор кодека : 2000
Продолжительность : 2 ч. 3 м.
Вид битрейта : Постоянный
Битрейт : 192 Кбит/сек
Каналы : 2 канала
Расположение каналов : Front: L R
Частота : 48,0 КГц
Битовая глубина : 16 бит
Метод сжатия : С потерями
Размер потока : 169 Мбайт (11%)
Выравнивание : Разделение по промежуткам
Продолжительность промежутка : 42 мс. (1,00 видеокадр)
Время предзагрузки промежутка : 500 мс.



_________________
Проголосуй за трекер Открытый торрент трекер - RUS-MEDIA.ORG

Проголосуй Открытый торрент трекер - RUS-MEDIA.ORG


Вернуться к началу
 Профиль Отправить личное сообщение  
 
   Похожие торренты   Автор   Торрент   Размер 
В этой теме нет новых непрочитанных сообщений. Крепкий орешек 2 / Die Hard 2 [Боевик, триллер, 1990] BDRip, Dvo

salma3

15 | 8

2.13 ГБ

В этой теме нет новых непрочитанных сообщений. Крепкий орешек / Die Hard [боевик, триллер, 1988] BDRip, Dub

salma3

23 | 7

1.46 ГБ

В этой теме нет новых непрочитанных сообщений. Крепкий орешек / Die Hard [Боевик, триллер, 1988] BDRip, 2Dvo [НТВ]+[Лазер Видео]

salma3

32 | 4

2.13 ГБ

В этой теме нет новых непрочитанных сообщений. Крепкий орешек: Хороший день, чтобы умереть / A Good Day to Die Hard [боевик, триллер, 2013] BDRip, Dub [Театральная версия]

salma3

35 | 19

2.18 ГБ

В этой теме нет новых непрочитанных сообщений. Крепкий орешек 4.0 / Live Free or Die Hard [боевик, триллер, приключения, 2007] WEB-DLRip-AVC, Dub [Open Matte]

salma3

40 | 19

2.18 ГБ

В этой теме нет новых непрочитанных сообщений. Крепкий орешек: Хороший день, чтобы умереть / A Good Day to Die Hard (Джон Мур / John Moore) [2013, США, боевик, триллер, криминал, HQRip-AVC] [Расширенная версия / Extended Сut] Dub

PriZraK

53 | 1

1.43 ГБ

В этой теме нет новых непрочитанных сообщений. Euro Angels Hardball 21: Super Hard / Крепкий орешек 21: Супержестко (Christoph Clark, Evil Angel) [2003 г., Anal, Double Anal, Fetish, SATRip] (Split Scenes)

salma3

7 | 2

1.35 ГБ


Начать новую тему Ответить на тему  [ 1 сообщение ] 




Для Мосгорсуда, Роскомнадзора и рекламодателей:: mosgorsud-torrent[собачка]yandex.ru
cron