Торрент файл
скачать торрент магнет ссылка Добавлен: 14 сен 2017, 23:49
Размер: 1.45 ГБ
Сидеров: 2085
Личеров: 1115
Статус: (salma3)
Автор

СообщениеДобавлено: 14 сен 2017, 23:49 

Не в сети
Супермодератор
Аватара пользователя
Дата регистрации:
15 фев 2012, 16:44
Возраст: 28
Спасибо: 6642 / 2146
Сообщения: 45681
Год выхода: 2017
Жанр: фантастика, боевик, триллер
Режиссер: Майкл Бэй

В ролях: Марк Уолберг, Лора Хэддок, Энтони Хопкинс, Джемма Чан, Сантьяго Кабрера, Джон Гудман, Стэнли Туччи, Джош Дюамель, Изабела Монер, Джон Туртурро

О фильме:
Оптимус Прайм исчез. Люди ведут войну с Трансформерами. Ключ к нашему будущему погребен в тайнах прошлого, в скрытой истории Трансформеров на Земле… Миссия по спасению мира ложится на плечи разношерстной компании, состоящей из Кейда Йегера, Бамблби, английского лорда и профессора из Оксфорда. Пришла пора действовать! Жертвы станут героями. Герои станут злодеями. Выстоит только один мир: их или наш.



Страна: США
Продолжительность: 02:34:43
Перевод: Дублированный [iTunes]

Качество: HDRip-AVC
Видео: 1271 Кбит/сек, 710*374 (1,898), в 23,976 (24000/1001) кадра/сек, AVC
Аудио: русский, 70,0 Кбит/сек, 48,0 КГц / 24,0 КГц, 2 канала, AAC (HE-AAC / LC)
Субтитры: русские (форсированные, полные)
Навигация по главам: есть


x264 [info]: frame I:1861 Avg QP:20.72 size: 28937
x264 [info]: frame P:60790 Avg QP:23.52 size: 11523
x264 [info]: frame B:159817 Avg QP:25.68 size: 4507

Общее
Уникальный идентификатор : 205135956923176941883445808868432374931 (0x9A53BF8ABFAD00458BB2DA9FA0AD6C93)
Полное имя : M:!Rips2017Transformers The Last KnightrTransformers.The.Last.Knight.2017.HDRip-AVC.RUS.stalkerok.new-team.mkv
Формат : Matroska
Версия формата : Version 4 / Version 2
Размер файла : 1,45 Гбайт
Продолжительность : 2 ч. 34 м.
Общий поток : 1343 Кбит/сек
Название фильма : Transformers: The Last Knight (2017) (Rip by stalkerok)
Дата кодирования : UTC 2017-09-14 19:19:24
Программа кодирования : mkvmerge v8.6.1 ('Flying') 64bit
Библиотека кодирования : libebml v1.3.3 + libmatroska v1.4.4

Видео
Идентификатор : 1
Формат : AVC
Формат/Информация : Advanced Video Codec
Профиль формата : High@L4.1
Параметр CABAC формата : Да
Параметр ReFrames формата : 16 кадров
Идентификатор кодека : V_MPEG4/ISO/AVC
Продолжительность : 2 ч. 34 м.
Битрейт : 1271 Кбит/сек
Ширина : 710 пикселей
Высота : 374 пикселя
Соотношение сторон : 1,898
Режим частоты кадров : Постоянный
Частота кадров : 23,976 (24000/1001) кадра/сек
Цветовое пространство : YUV
Субдискретизация насыщенности : 4:2:0
Битовая глубина : 8 бит
Тип развёртки : Прогрессивная
Бит/(Пиксели*Кадры) : 0.200
Размер потока : 1,37 Гбайт (95%)
Заголовок : Transformers: The Last Knight (2017) (Rip by stalkerok)
Библиотека кодирования : x264 core 150 r2833kMod df79067
Настройки программы : cabac=1 / ref=16 / deblock=1:-3:-2 / analyse=0x3:0x133 / me=umh / subme=11 / psy=1 / fade_compensate=0.00 / psy_rd=1.00:0.00 / mixed_ref=1 / me_range=32 / chroma_me=1 / trellis=2 / 8x8dct=1 / cqm=0 / deadzone=21,11 / fast_pskip=0 / chroma_qp_offset=-2 / threads=12 / lookahead_threads=2 / sliced_threads=0 / nr=0 / decimate=1 / interlaced=0 / bluray_compat=0 / constrained_intra=0 / bframes=16 / b_pyramid=2 / b_adapt=2 / b_bias=0 / direct=3 / weightb=1 / open_gop=0 / weightp=2 / keyint=240 / keyint_min=23 / scenecut=40 / intra_refresh=0 / rc_lookahead=60 / rc=crf / mbtree=0 / crf=21.1000 / qcomp=0.65 / qpmin=0 / qpmax=69 / qpstep=4 / vbv_maxrate=50000 / vbv_bufsize=62500 / crf_max=0.0 / nal_hrd=none / filler=0 / ip_ratio=1.30 / pb_ratio=1.20 / aq=3:1.00
Default : Да
Forced : Нет

Аудио
Идентификатор : 2
Формат : AAC
Формат/Информация : Advanced Audio Codec
Профиль формата : HE-AAC / LC
Идентификатор кодека : A_AAC
Продолжительность : 2 ч. 34 м.
Битрейт : 70,0 Кбит/сек
Каналы : 2 канала
Расположение каналов : Front: L R
Частота : 48,0 КГц / 24,0 КГц
Частота кадров : 23,438 кадра/сек (1024 spf)
Метод сжатия : С потерями
Задержка видео : 31 мс.
Размер потока : 77,4 Мбайт (5%)
Язык : Russian
Default : Да
Forced : Нет

Текст #1
Идентификатор : 3
Формат : UTF-8
Идентификатор кодека : S_TEXT/UTF8
Идентификатор кодека/Информация : UTF-8 Plain Text
Продолжительность : 2 ч. 33 м.
Битрейт : 1 бит/сек
Count of elements : 34
Размер потока : 1,29 Кбайт (0%)
Заголовок : Forced
Язык : Russian
Default : Да
Forced : Нет

Текст #2
Идентификатор : 4
Формат : UTF-8
Идентификатор кодека : S_TEXT/UTF8
Идентификатор кодека/Информация : UTF-8 Plain Text
Продолжительность : 2 ч. 33 м.
Битрейт : 96 бит/сек
Count of elements : 2321
Размер потока : 109 Кбайт (0%)
Заголовок : Full
Язык : Russian
Default : Нет
Forced : Нет

Меню
00:00:00.000 : en:00:00:00.000
00:06:36.104 : en:00:06:36.104
00:14:03.468 : en:00:14:03.468
00:21:45.763 : en:00:21:45.763
00:27:53.255 : en:00:27:53.255
00:33:53.907 : en:00:33:53.907
00:40:08.906 : en:00:40:08.906
00:46:58.941 : en:00:46:58.941
00:53:25.786 : en:00:53:25.786
01:02:02.928 : en:01:02:02.928
01:08:47.081 : en:01:08:47.081
01:14:37.223 : en:01:14:37.223
01:20:10.180 : en:01:20:10.180
01:29:13.390 : en:01:29:13.390
01:37:59.499 : en:01:37:59.499
01:44:57.583 : en:01:44:57.583
01:51:15.502 : en:01:51:15.502
01:57:59.447 : en:01:57:59.447
02:06:09.729 : en:02:06:09.729
02:10:54.096 : en:02:10:54.096
02:16:01.153 : en:02:16:01.153
02:21:42.619 : en:02:21:42.619
02:25:17.292 : en:02:25:17.292




Релиз: Автор рипа: stalkerok


_________________
Проголосуй за трекер Открытый торрент трекер - RUS-MEDIA.ORG

Проголосуй Открытый торрент трекер - RUS-MEDIA.ORG



реклама партнёра


Вернуться к началу
 Профиль Отправить личное сообщение  
 
   Похожие торренты   Автор   Торрент   Размер 
В этой теме нет новых непрочитанных сообщений. Трансформеры: Последний рыцарь / Transformers: The Last Knight [фантастика, боевик, триллер, 2017] BDRip-AVC, Dub [iTunes]

salma3

661 | 365

4.77 ГБ

В этой теме нет новых непрочитанных сообщений. Трансформеры: Последний рыцарь / Transformers: The Last Knight [фантастика, боевик, триллер, 2017] Blu-ray 1080p, Dub [iTunes]

salma3

81 | 63

42.26 ГБ

В этой теме нет новых непрочитанных сообщений. Трансформеры: Последний рыцарь / Transformers: The Last Knight [фантастика, боевик, триллер, 2017] WEB-DL 1080p, Dub+Sub [iTunes]

salma3

12072 | 7210

10.51 ГБ

В этой теме нет новых непрочитанных сообщений. Трансформеры: Последний рыцарь / Transformers: The Last Knight [фантастика, боевик, триллер, 2017] BDRip, Dub+Sub [iTunes]

salma3

736 | 171

1.46 ГБ

В этой теме нет новых непрочитанных сообщений. Трансформеры: Последний рыцарь / Transformers: The Last Knight [Фантастика, Боевик, Триллер, Приключения, 2017] BDRip 1080p, Dub [3D-Video] [iTunes]

salma3

217 | 257

19.13 ГБ

В этой теме нет новых непрочитанных сообщений. Трансформеры: Последний рыцарь / Transformers: The Last Knight [фантастика, боевик, триллер, приключения, 2017] HDRip, Dub [Лицензия]

colian7

4382 | 136

1.45 ГБ

В этой теме нет новых непрочитанных сообщений. Трансформеры: Последний рыцарь / Transformers: The Last Knight [фантастика, боевик, триллер, 2017] BDRip, Dub [Лицензия]

salma3

494 | 129

2.91 ГБ


Начать новую тему Ответить на тему  [ 1 сообщение ] 




Для Мосгорсуда, Роскомнадзора и рекламодателей:: mosgorsud-torrent[собачка]yandex.ru