Торрент файл
скачать торрент магнет ссылка Добавлен: 14 сен 2017, 21:08
Размер: 746.03 МБ
Сидеров: 79
Личеров: 7
Статус: (salma3)
Автор

СообщениеДобавлено: 14 сен 2017, 21:08 

Не в сети
Супермодератор
Аватара пользователя
Дата регистрации:
15 фев 2012, 16:44
Возраст: 28
Спасибо: 6925 / 2147
Сообщения: 52894
Год выхода: 2012
Жанр: Триллер, драма, приключения
Режиссер: Джо Карнахан

В ролях: Лиам Нисон, Дермот Малруни, Фрэнк Грилло, Джеймс Бэдж, Дэйл Джо Андерсон, Нонсо Анози, Даллас Робертс, Лариса Стадничук, Бен Брэй, Джеймс Битонти

О фильме :
Действие фильма разворачивается в заснеженных горах Аляски. Небольшой пассажирский самолет, потерпевший крушение, оказывается вдали от цивилизации и те немногие из пассажиров, которым удалось выжить при падении самолета, оказываются лицом к лицу с безжалостной природой. Их окружают лишь бесконечные снега и одинокие стаи волков, но в суровой схватке за собственную жизнь это еще не самое страшное, с чем им придется столкнуться...



Страна: США
Продолжительность: 01:57:05
Перевод: Дублированный

Файл
Формат: MKV
Качество: HDRip-AVC
Видео: MPEG-4 AVC, 752x320, ~ 817 Кбит/с
Аудио: AAC-LC, 2 ch, ~72 Кбит/с

Общее
Уникальный идентификатор : 205040192859839160668589145348676243958 (0x9A414E025670B031896D5D3FC8DBD1F6)
Полное имя : D:MOVIESThe.Grey.2012.ExKinoRay.mkv
Формат : Matroska
Версия формата : Version 4 / Version 2
Размер файла : 746 Мбайт
Продолжительность : 1 ч. 57 м.
Общий поток : 891 Кбит/сек
Дата кодирования : UTC 2017-09-14 14:32:49
Программа кодирования : mkvmerge v15.0.0 ('Duel with the Devil') 64-bit
Библиотека кодирования : libebml v1.3.5 + libmatroska v1.4.5

Видео
Идентификатор : 1
Формат : AVC
Формат/Информация : Advanced Video Codec
Профиль формата : High@L4.1
Параметр CABAC формата : Да
Параметр RefFrames формата : 10 кадров
Идентификатор кодека : V_MPEG4/ISO/AVC
Продолжительность : 1 ч. 57 м.
Битрейт : 817 Кбит/сек
Ширина : 752 пикселя
Высота : 320 пикселей
Соотношение сторон : 2,35:1
Режим частоты кадров : Постоянный
Частота кадров : 23,976 (24000/1001) кадра/сек
Цветовое пространство : YUV
Субдискретизация насыщенности : 4:2:0
Битовая глубина : 8 бит
Тип развёртки : Прогрессивная
Бит/(Пиксели*Кадры) : 0.142
Размер потока : 684 Мбайт (92%)
Библиотека кодирования : x264 core 152 r2851kMod ba24899
Настройки программы : cabac=1 / ref=10 / deblock=1:-2:-2 / analyse=0x3:0x113 / me=umh / subme=11 / psy=1 / fade_compensate=0.00 / psy_rd=1.00:0.20 / mixed_ref=1 / me_range=32 / chroma_me=1 / trellis=2 / 8x8dct=1 / cqm=0 / deadzone=21,11 / fast_pskip=0 / chroma_qp_offset=-3 / threads=6 / lookahead_threads=1 / sliced_threads=0 / nr=0 / decimate=0 / interlaced=0 / bluray_compat=0 / constrained_intra=0 / bframes=10 / b_pyramid=2 / b_adapt=2 / b_bias=0 / direct=3 / weightb=1 / open_gop=0 / weightp=2 / keyint=240 / keyint_min=23 / scenecut=40 / intra_refresh=0 / rc_lookahead=40 / rc=2pass / mbtree=1 / bitrate=817 / ratetol=1.0 / qcomp=0.60 / qpmin=0 / qpmax=69 / qpstep=4 / cplxblur=20.0 / qblur=0.5 / vbv_maxrate=50000 / vbv_bufsize=62500 / nal_hrd=none / filler=0 / ip_ratio=1.40 / aq=3:1.00
Default : Да
Forced : Нет

Аудио
Идентификатор : 2
Формат : AAC
Формат/Информация : Advanced Audio Codec
Профиль формата : LC
Идентификатор кодека : A_AAC
Продолжительность : 1 ч. 57 м.
Битрейт : 72,0 Кбит/сек
Каналы : 2 канала
Расположение каналов : Front: L R
Частота : 48,0 КГц
Частота кадров : 46,875 кадров/сек (1024 SPF)
Метод сжатия : С потерями
Задержка видео : 9 мс.
Размер потока : 60,3 Мбайт (8%)
Default : Да
Forced : Нет




Релиз от:


_________________
Проголосуй за трекер Открытый торрент трекер - RUS-MEDIA.ORG

Проголосуй Открытый торрент трекер - RUS-MEDIA.ORG



реклама партнёра


Вернуться к началу
 Профиль Отправить личное сообщение  
 
   Похожие торренты   Автор   Торрент   Размер 
В этой теме нет новых непрочитанных сообщений. Схватка / The Grey (Джо Карнахан) [2012, боевик, триллер, драма, приключения, BDRip (1080p)]

marya111

0 | 0

8.76 ГБ

В этой теме нет новых непрочитанных сообщений. Схватка / The Grey [Боевик, триллер, драма, 2011] BDRip-AVC, Dub [Open Matte]

salma3

28 | 0

2.86 ГБ

В этой теме нет новых непрочитанных сообщений. Схватка / The Grey [Боевик, триллер, драма, 2011] BDRip 720p, Dub [Open Matte]

salma3

13 | 1

5.26 ГБ

В этой теме нет новых непрочитанных сообщений. Железная схватка / Robot Overlords (Джон Райт) [фантастика, боевик, приключения, 2014] HDRip, Mvo [iTunes]

Dracon

1825 | 94

1.37 ГБ

В этой теме нет новых непрочитанных сообщений. Железная схватка / Robot Overlords (Джон Райт) [фантастика, боевик, приключения, 2014] HDRip [Студия Пиратского дубляжа]

Dracon

9 | 1

1.37 ГБ

В этой теме нет новых непрочитанных сообщений. Вольф: Схватка в участке / Wolff - Kampf im Revier [боевик, триллер, криминал, 2012] HDTVRip, Mvo

salma3

106 | 9

1.37 ГБ

В этой теме нет новых непрочитанных сообщений. Keisha Grey VS. Karlee Grey / Keisha Grey против Karlee Grey (Zero Tolerance Ent.) [2017 г., Gonzo, Big Boobs, Brunettes, Compilation, Star showcase, DVDRip]

salma3

15 | 5

2.46 ГБ


Начать новую тему Ответить на тему  [ 1 сообщение ] 




Для Мосгорсуда, Роскомнадзора и рекламодателей:: mosgorsud-torrent[собачка]yandex.ru
cron