Торрент файл
скачать торрент магнет ссылка Добавлен: 13 сен 2017, 11:40
Размер: 2.18 ГБ
Сидеров: 647
Личеров: 129
Статус: (salma3)
Автор

СообщениеДобавлено: 13 сен 2017, 11:40 

Не в сети
Супермодератор
Аватара пользователя
Дата регистрации:
15 фев 2012, 16:44
Возраст: 29
Спасибо: 8001 / 2147
Сообщения: 89005
Год выпуска: 2017
Жанр: фэнтези, боевик, комедия
Режиссер: Хоаким Роннинг, Эспен Сандберг

В ролях: Джонни Депп, Хавьер Бардем, Джеффри Раш, Брентон Туэйтс, Кая Скоделарио, Кевин МакНэлли, Голшифте Фарахани, Дэвид Уэнэм, Стивен Грэм, Энгус Барнетт

Описание:
Исчерпавший свою удачу капитан Джек Воробей обнаруживает, что за ним охотится его старый неприятель, ужасный капитан Салазар и его призрачные пираты. Они только что сбежали из Дьявольского треугольника и намерены уничтожить всех пиратов, включая Джека. Поможет спастись лишь могущественный артефакт — трезубец Посейдона, который дарует своему обладателю полный контроль над морями.



Страна: США
Продолжительность: 02:09:07
Перевод: Дублированный [Лицензия]

Качество: BDRip-AVC
Видео: 720x300 (1.85:1), 23,976 fps, x264 ~1965 kbps avg, 0.379 bit/pixel
Аудио: 48 kHz, AC3 Dolby Digital, 3/2 (L,C,R,l,r) + LFE ch, ~448.00 kbps avg | RUS
Субтитры: Русские, Английские

Общее
Уникальный идентификатор : 176993471388073301503736851159156176866 (0x8527B3E0EB214040BDFE21B69A72B7E2)
Полное имя : D:Pirates.of.the.Caribbean.Dead.Men.Tell.No.Tales.2017.BDRip(AVC).OlLanDGroup.mkv
Формат : Matroska
Версия формата : Version 2
Размер файла : 2,18 Гбайт
Продолжительность : 2 ч. 9 м.
Общий поток : 2415 Кбит/сек
Название фильма : Pirates.of.the.Caribbean.Dead.Men.Tell.No.Tales.2017 #TorpedoUK#
Дата кодирования : UTC 2017-09-13 00:55:04
Программа кодирования : mkvmerge v7.8.0 ('River Man') 32bit built on Apr 3 2015 12:11:22
Библиотека кодирования : libebml v1.3.1 + libmatroska v1.4.2

Видео
Идентификатор : 1
Формат : AVC
Формат/Информация : Advanced Video Codec
Профиль формата : High@L4.1
Параметр CABAC формата : Да
Параметр ReFrames формата : 10 кадров
Идентификатор кодека : V_MPEG4/ISO/AVC
Продолжительность : 2 ч. 9 м.
Битрейт : 1965 Кбит/сек
Ширина : 720 пикселей
Высота : 300 пикселей
Соотношение сторон : 2,40:1
Режим частоты кадров : Постоянный
Частота кадров : 23,976 (24000/1001) кадра/сек
Цветовое пространство : YUV
Субдискретизация насыщенности : 4:2:0
Битовая глубина : 8 бит
Тип развёртки : Прогрессивная
Бит/(Пиксели*Кадры) : 0.379
Размер потока : 1,73 Гбайт (79%)
Библиотека кодирования : x264 core 146 r2538 121396c
Настройки программы : cabac=1 / ref=10 / deblock=1:-3:-3 / analyse=0x3:0x133 / me=umh / subme=11 / psy=1 / psy_rd=1.00:0.07 / mixed_ref=1 / me_range=48 / chroma_me=1 / trellis=2 / 8x8dct=1 / cqm=0 / deadzone=21,11 / fast_pskip=0 / chroma_qp_offset=-3 / threads=6 / lookahead_threads=1 / sliced_threads=0 / nr=0 / decimate=0 / interlaced=0 / bluray_compat=0 / constrained_intra=0 / bframes=10 / b_pyramid=2 / b_adapt=2 / b_bias=0 / direct=3 / weightb=1 / open_gop=0 / weightp=2 / keyint=240 / keyint_min=23 / scenecut=40 / intra_refresh=0 / rc_lookahead=40 / rc=2pass / mbtree=0 / bitrate=1965 / ratetol=1.0 / qcomp=0.60 / qpmin=0 / qpmax=69 / qpstep=4 / cplxblur=20.0 / qblur=0.5 / vbv_maxrate=50000 / vbv_bufsize=62500 / nal_hrd=none / filler=0 / ip_ratio=1.40 / pb_ratio=1.30 / aq=1:1.00
Default : Да
Forced : Нет

Аудио
Идентификатор : 2
Формат : AC-3
Формат/Информация : Audio Coding 3
Расширение режима : CM (complete main)
Параметр Endianness формата : Big
Идентификатор кодека : A_AC3
Продолжительность : 2 ч. 9 м.
Вид битрейта : Постоянный
Битрейт : 448 Кбит/сек
Каналы : 6 каналов
Расположение каналов : Front: L C R, Side: L R, LFE
Частота : 48,0 КГц
Частота кадров : 31,250 кадров/сек (1536 spf)
Битовая глубина : 16 бит
Метод сжатия : С потерями
Размер потока : 414 Мбайт (19%)
Заголовок : License
Язык : Russian
Default : Да
Forced : Нет

Текст #1
Идентификатор : 3
Формат : UTF-8
Идентификатор кодека : S_TEXT/UTF8
Идентификатор кодека/Информация : UTF-8 Plain Text
Заголовок : Forced
Язык : Russian
Default : Да
Forced : Нет

Текст #2
Идентификатор : 4
Формат : UTF-8
Идентификатор кодека : S_TEXT/UTF8
Идентификатор кодека/Информация : UTF-8 Plain Text
Заголовок : Full
Язык : Russian
Default : Нет
Forced : Нет

Текст #3
Идентификатор : 5
Формат : UTF-8
Идентификатор кодека : S_TEXT/UTF8
Идентификатор кодека/Информация : UTF-8 Plain Text
Заголовок : SDH
Язык : English
Default : Нет
Forced : Нет

Меню
00:00:00.000 : en:Chapter 01
00:05:49.515 : en:Chapter 02
00:08:34.222 : en:Chapter 03
00:13:40.820 : en:Chapter 04
00:16:29.154 : en:Chapter 05
00:22:33.852 : en:Chapter 06
00:25:19.267 : en:Chapter 07
00:28:06.101 : en:Chapter 08
00:31:41.774 : en:Chapter 09
00:33:44.814 : en:Chapter 10
00:37:02.053 : en:Chapter 11
00:42:27.711 : en:Chapter 12
00:49:09.071 : en:Chapter 13
00:54:00.278 : en:Chapter 14
00:57:19.394 : en:Chapter 15
01:00:38.718 : en:Chapter 16
01:08:29.939 : en:Chapter 17
01:11:57.021 : en:Chapter 18
01:16:50.939 : en:Chapter 19
01:19:27.471 : en:Chapter 20
01:25:04.808 : en:Chapter 21
01:27:42.173 : en:Chapter 22
01:31:43.789 : en:Chapter 23
01:38:22.813 : en:Chapter 24
01:42:36.775 : en:Chapter 25
01:47:23.562 : en:Chapter 26
01:52:58.688 : en:Chapter 27
01:59:09.934 : en:Chapter 28
02:09:06.989 : en:Chapter 29


Релиз от: Rip by:


_________________
Проголосуй за трекер Открытый торрент трекер - RUS-MEDIA.ORG

Проголосуй Открытый торрент трекер - RUS-MEDIA.ORG


Вернуться к началу
 Профиль  
 
   Похожие торренты   Автор   Торрент   Размер 
В этой теме нет новых непрочитанных сообщений. Пираты Карибского моря: Мертвецы не рассказывают сказки / Pirates of the Caribbean: Dead Men Tell No Tales [фэнтези, боевик, комедия, 2017] BDRip-AVC, Dub+Sub [Лицензия]

salma3

893 | 271

2.18 ГБ

В этой теме нет новых непрочитанных сообщений. Пираты Карибского моря: Мертвецы не рассказывают сказки / Pirates of the Caribbean: Dead Men Tell No Tales [фэнтези, боевик, комедия, приключения, 2017] BDRip, Dub+Sub [Лицензия]

salma3

2202 | 1007

2.18 ГБ

В этой теме нет новых непрочитанных сообщений. Пираты Карибского моря: Мертвецы не рассказывают сказки / Pirates of the Caribbean: Dead Men Tell No Tales [фэнтези, боевик, комедия, приключения, 2017] BDRip, Dub+Sub [Лицензия]

salma3

4144 | 2255

1.46 ГБ

В этой теме нет новых непрочитанных сообщений. Пираты Карибского моря: Мертвецы не рассказывают сказки / Pirates of the Caribbean: Dead Men Tell No Tales [фэнтези, боевик, комедия, 2017] BDRip 720p, Dub+Sub [Лицензия]

salma3

710 | 321

4.6 ГБ

В этой теме нет новых непрочитанных сообщений. Пираты Карибского моря: Мертвецы не рассказывают сказки / Pirates of the Caribbean: Dead Men Tell No Tales [фэнтези, боевик, комедия, 2017] BDRip 1080р, Dub+Sub [Лицензия]

salma3

2748 | 1773

8.66 ГБ

В этой теме нет новых непрочитанных сообщений. Пираты Карибского моря: Мертвецы не рассказывают сказки / Pirates of the Caribbean: Dead Men Tell No Tales [фэнтези, боевик, комедия, приключения, 2017] BDRip 720p, Dub+Sub [Лицензия]

salma3

2853 | 3258

6.48 ГБ

В этой теме нет новых непрочитанных сообщений. Пираты Карибского моря: Мертвецы не рассказывают сказки / Pirates of the Caribbean: Dead Men Tell No Tales [Фэнтези, боевик, комедия, 2017] BDRip-HEVC 1080p, Dub [Лицензия]

salma3

2483 | 997

7.81 ГБ


Начать новую тему Ответить на тему  [ 1 сообщение ] 




Для Мосгорсуда, Роскомнадзора и рекламодателей:: mosgorsud-torrent[собачка]yandex.ru
cron