Торрент файл
скачать торрент магнет ссылка Добавлен: 12 сен 2017, 13:51
Размер: 1.46 ГБ
Сидеров: 150
Личеров: 50
Статус: (salma3)
Автор

СообщениеДобавлено: 12 сен 2017, 13:51 

Не в сети
Супермодератор
Аватара пользователя
Дата регистрации:
15 фев 2012, 16:44
Возраст: 28
Спасибо: 7224 / 2147
Сообщения: 68058
Год выпуска: 2006
Жанр: фантастика, триллер, комедия
Режиссер:Ричард Келли

В ролях: Сара Мишель Геллар, Дуэйн Джонсон, Джанин Гарофало, Кристофер Ламберт, Джастин Тимберлэйк, Кевин Смит, Мэнди Мур, Холмс Осборн

Описание:
В 2008 году, после Третьей мировой войны, Лос-Анджелес находится на пороге социальной, экономической и природной катастрофы. Звезда боевиков, параноидальный шизофреник Боксер Сантариос, страдает амнезией и периодически видит будущее. Его жизнь переплетается с жизнями Кристы Нау, звездой кино для взрослых, которая разрабатывает своё собственное телевизионное реалити-шоу…



Страна:Франция / Германия / США
Продолжительность: 02:24:33
Перевод:[/color] Авторский (одноголосый, закадровый)[Юрий Сербин]

Качество: BDRip
Видео: 720x304 (2.35:1), 23.976 fps, XviD build 73 ~1 240 kbps avg
Аудио: 48.0 kHz, AC3 Dolby Digital, 2/0 (L,R) ch, ~192 kbps



General
Полное имя : Сказки юга (фантастика, триллер, драма 2009 год).avi
Формат : AVI
Формат/Информация : Audio Video Interleave
Размер файла : 1,46 Гбайт
Продолжительность : 2 ч. 24 м.
Общий поток : 1441 Кбит/сек
Программа кодирования : VirtualDubMod 1.5.10.2 (build 2540/release)
Библиотека кодирования : VirtualDubMod build 2540/release

Видео
Идентификатор : 0
Формат : MPEG-4 Visual
Профиль формата : Advanced Simple@L5
Параметр BVOP формата : 2
Параметр QPel формата : Нет
Параметр GMC формата : Без точки перехода
Параметр матрицы формата : Выборочная
Идентификатор кодека : XVID
Идентификатор кодека/Подсказка : XviD
Продолжительность : 2 ч. 24 м.
Битрейт : 1240 Кбит/сек
Ширина : 720 пикселей
Высота : 304 пикселя
Соотношение сторон : 2,35:1
Частота кадров : 23,976 (23976/1000) кадра/сек
Цветовое пространство : YUV
Субдискретизация насыщенности : 4:2:0
Битовая глубина : 8 бит
Тип развёртки : Прогрессивная
Метод сжатия : С потерями
Бит/(Пиксели*Кадры) : 0.236
Размер потока : 1,25 Гбайт (86%)
Библиотека кодирования : XviD 73

Аудио
Идентификатор : 1
Формат : AC-3
Формат/Информация : Audio Coding 3
Расширение режима : CM (complete main)
Параметр Endianness формата : Big
Идентификатор кодека : 2000
Продолжительность : 2 ч. 24 м.
Вид битрейта : Постоянный
Битрейт : 192 Кбит/сек
Каналы : 2 канала
Расположение каналов : Front: L R
Частота : 48,0 КГц
Частота кадров : 31,250 кадров/сек (1536 spf)
Метод сжатия : С потерями
Размер потока : 199 Мбайт (13%)
Выравнивание : Разделение по промежуткам
Продолжительность промежутка : 42 мс. (1,00 видеокадр)
Время предзагрузки промежутка : 500 мс.


_________________
Проголосуй за трекер Открытый торрент трекер - RUS-MEDIA.ORG

Проголосуй Открытый торрент трекер - RUS-MEDIA.ORG


Вернуться к началу
 Профиль Отправить личное сообщение  
 
   Похожие торренты   Автор   Торрент   Размер 
В этой теме нет новых непрочитанных сообщений. Пираты Карибского моря: Мертвецы не рассказывают сказки / Pirates of the Caribbean: Dead Men Tell No Tales [фэнтези, боевик, комедия, 2017] BDRip-AVC, Dub+Sub [Лицензия]

salma3

647 | 129

2.18 ГБ

В этой теме нет новых непрочитанных сообщений. Пираты Карибского моря: Мертвецы не рассказывают сказки / Pirates of the Caribbean: Dead Men Tell No Tales [фэнтези, боевик, комедия, 2017] BDRip-AVC, Dub+Sub [Лицензия]

salma3

893 | 271

2.18 ГБ

В этой теме нет новых непрочитанных сообщений. Пираты Карибского моря: Мертвецы не рассказывают сказки / Pirates of the Caribbean: Dead Men Tell No Tales [фэнтези, боевик, комедия, приключения, 2017] BDRip, Dub+Sub [Лицензия]

salma3

2202 | 1007

2.18 ГБ

В этой теме нет новых непрочитанных сообщений. Пираты Карибского моря: Мертвецы не рассказывают сказки / Pirates of the Caribbean: Dead Men Tell No Tales [фэнтези, боевик, комедия, приключения, 2017] BDRip, Dub+Sub [Лицензия]

salma3

4144 | 2255

1.46 ГБ

В этой теме нет новых непрочитанных сообщений. Пираты Карибского моря: Мертвецы не рассказывают сказки / Pirates of the Caribbean: Dead Men Tell No Tales [фэнтези, боевик, комедия, 2017] BDRip 1080р, Dub+Sub [Лицензия]

salma3

2748 | 1773

8.66 ГБ

В этой теме нет новых непрочитанных сообщений. Пираты Карибского моря: Мертвецы не рассказывают сказки / Pirates of the Caribbean: Dead Men Tell No Tales [фэнтези, боевик, комедия, 2017] BDRip 720p, Dub+Sub [Лицензия]

salma3

710 | 321

4.6 ГБ

В этой теме нет новых непрочитанных сообщений. Пираты Карибского моря: Мертвецы не рассказывают сказки / Pirates of the Caribbean: Dead Men Tell No Tales [фэнтези, боевик, комедия, приключения, 2017] BDRip 720p, Dub+Sub [Лицензия]

salma3

2853 | 3258

6.48 ГБ


Начать новую тему Ответить на тему  [ 1 сообщение ] 




Для Мосгорсуда, Роскомнадзора и рекламодателей:: mosgorsud-torrent[собачка]yandex.ru
cron