Торрент файл
скачать торрент магнет ссылка Добавлен: 11 сен 2017, 10:41
Размер: 745.78 МБ
Сидеров: 191
Личеров: 33
Статус: (salma3)
Автор

СообщениеДобавлено: 11 сен 2017, 10:41 

Не в сети
Супермодератор
Аватара пользователя
Дата регистрации:
15 фев 2012, 16:44
Возраст: 28
Спасибо: 7285 / 2147
Сообщения: 70259
Год выхода: 1989
Жанр: Комедия, криминал
Режиссер: Артур Хиллер

В ролях: Ричард Прайор, Джин Уайлдер, Джоан Северанс, Кевин Спейси, Алан Норт, Энтони Зерби, Луис Гьямбалво, Керстен Чайлдз, Харди Роулз, Одри Дж. Нинан

О фильме :
Прямо на глазах у Дэйва совершается убийство, но он глухой. А Уолли все слышал, но он слеп. Вдвоем они — просто идеальные свидетели преступления для преступников, а для полицейских – единственные подозреваемые. И те и другие так просто их не отпустят, они отправляются на поиски неуловимой парочки. Но вдвоем, даже, несмотря на свои не совсем полноценные способности, им удается обхитрить своих преследователей. В конце концов, глухой со слепым решают вершить правосудие сами …



Выпущено: США , TriStar Pictures
Продолжительность: 01:42:04
Перевод: Профессиональный (многоголосый, закадровый) ОРТ

Файл
Формат: MKV
Качество: BDRip-AVC
Видео: MPEG-4 AVC, 752x408, ~ 948 Кбит/с
Аудио: AAC-LC, 2 ch, ~72 Кбит/с
Субтитры: Русские

Общее
Уникальный идентификатор : 205142998501193358293345157155945281382 (0x9A551AB7F55DF5D7939E31D89A017766)
Полное имя : D:MOVIESNichego.ne.vischu.nichego.ne.slyschu.1989.ExKinoRay.mkv
Формат : Matroska
Версия формата : Version 4 / Version 2
Размер файла : 746 Мбайт
Продолжительность : 1 ч. 42 м.
Общий поток : 1022 Кбит/сек
Дата кодирования : UTC 2017-09-10 19:27:10
Программа кодирования : mkvmerge v15.0.0 ('Duel with the Devil') 64-bit
Библиотека кодирования : libebml v1.3.5 + libmatroska v1.4.5

Видео
Идентификатор : 1
Формат : AVC
Формат/Информация : Advanced Video Codec
Профиль формата : High@L4.1
Параметр CABAC формата : Да
Параметр RefFrames формата : 10 кадров
Идентификатор кодека : V_MPEG4/ISO/AVC
Продолжительность : 1 ч. 42 м.
Битрейт : 948 Кбит/сек
Ширина : 752 пикселя
Высота : 408 пикселей
Соотношение сторон : 1,85:1
Режим частоты кадров : Постоянный
Частота кадров : 23,976 (24000/1001) кадра/сек
Цветовое пространство : YUV
Субдискретизация насыщенности : 4:2:0
Битовая глубина : 8 бит
Тип развёртки : Прогрессивная
Бит/(Пиксели*Кадры) : 0.129
Размер потока : 692 Мбайт (93%)
Библиотека кодирования : x264 core 152 r2851kMod ba24899
Настройки программы : cabac=1 / ref=10 / deblock=1:-2:-2 / analyse=0x3:0x113 / me=umh / subme=11 / psy=1 / fade_compensate=0.00 / psy_rd=1.00:0.05 / mixed_ref=1 / me_range=32 / chroma_me=1 / trellis=2 / 8x8dct=1 / cqm=0 / deadzone=21,11 / fast_pskip=0 / chroma_qp_offset=-3 / threads=6 / lookahead_threads=1 / sliced_threads=0 / nr=0 / decimate=0 / interlaced=0 / bluray_compat=0 / constrained_intra=0 / bframes=10 / b_pyramid=2 / b_adapt=2 / b_bias=0 / direct=3 / weightb=1 / open_gop=0 / weightp=2 / keyint=240 / keyint_min=23 / scenecut=40 / intra_refresh=0 / rc_lookahead=40 / rc=2pass / mbtree=1 / bitrate=948 / ratetol=1.0 / qcomp=0.60 / qpmin=0 / qpmax=69 / qpstep=4 / cplxblur=20.0 / qblur=0.5 / vbv_maxrate=50000 / vbv_bufsize=62500 / nal_hrd=none / filler=0 / ip_ratio=1.40 / aq=3:1.00
Default : Да
Forced : Нет

Аудио
Идентификатор : 2
Формат : AAC
Формат/Информация : Advanced Audio Codec
Профиль формата : LC
Идентификатор кодека : A_AAC
Продолжительность : 1 ч. 42 м.
Битрейт : 72,0 Кбит/сек
Каналы : 2 канала
Расположение каналов : Front: L R
Частота : 48,0 КГц
Частота кадров : 46,875 кадров/сек (1024 SPF)
Метод сжатия : С потерями
Задержка видео : 9 мс.
Размер потока : 52,5 Мбайт (7%)
Язык : Russian
Default : Да
Forced : Нет

Текст
Идентификатор : 3
Формат : UTF-8
Идентификатор кодека : S_TEXT/UTF8
Идентификатор кодека/Информация : UTF-8 Plain Text
Продолжительность : 1 ч. 35 м.
Битрейт : 106 бит/сек
ElementCount : 1332
Размер потока : 74,5 Кбайт (0%)
Заголовок : Видеосервис
Язык : Russian
Default : Нет
Forced : Нет

Меню
00:00:00.000 : en:00:00:00.000
00:06:18.544 : en:00:06:18.545
00:12:29.039 : en:00:12:29.040
00:20:05.954 : en:00:20:05.955
00:24:44.733 : en:00:24:44.733
00:30:22.946 : en:00:30:22.946
00:35:54.026 : en:00:35:54.027
00:43:46.498 : en:00:43:46.499
00:52:08.708 : en:00:52:08.709
00:57:32.198 : en:00:57:32.199
01:05:00.438 : en:01:05:00.438
01:12:27.968 : en:01:12:27.969
01:17:33.106 : en:01:17:33.107
01:22:13.511 : en:01:22:13.512
01:26:41.154 : en:01:26:41.154
01:33:50.374 : en:01:33:50.375

Релиз от:


_________________
Проголосуй за трекер Открытый торрент трекер - RUS-MEDIA.ORG

Проголосуй Открытый торрент трекер - RUS-MEDIA.ORG


Вернуться к началу
 Профиль Отправить личное сообщение  
 
   Похожие торренты   Автор   Торрент   Размер 
В этой теме нет новых непрочитанных сообщений. Rocco's Intimate Castings #8(Evil Angel Version) / Откровенный Кастинг Rocco #8(Evil Angel Версия) (Rocco Siffredi, Evil Angel) [2017 г., Gonzo Anal, WEB-DL, 540p] (Split Scenes)

salma3

33 | 11

2.59 ГБ

В этой теме нет новых непрочитанных сообщений. Rocco's Intimate Castings #7(Evil Angel Version) / Откровенный Кастинг Rocco #7(Evil Angel Версия) (Rocco Siffredi, Evil Angel) [2017 г., Gonzo Anal, 540p] (Split Scenes)

salma3

27 | 9

2.5 ГБ

В этой теме нет новых непрочитанных сообщений. Rocco's Intimate Castings #17(Evil Angel Version) / Откровенный Кастинг Rocco #17(Evil Angel Version) (Rocco Siffredi, Evil Angel) [2018 г., Gonzo Hardcore Anal, WEB-DL 540p] (Split Scenes)

salma3

0 | 0

2.57 ГБ

В этой теме нет новых непрочитанных сообщений. Evil Creampies / Дьявольский Кремовый Пирог (Jonni Darkko, Evil Angel) [2017 г., All Sex, Anal, Oral, Gonzo, Big Tits, Cream Pie, Cumshots, DVDRip]

max77777

3 | 0

2.64 ГБ

В этой теме нет новых непрочитанных сообщений. Evil MILFs #3: Slutty Stepmoms / Порочные Мамочки #3 (Aiden Starr, Evil Angel) [2017 г., Gonzo, Mature, MILF, WEB-DL, 540p] (Split Scenes)

salma3

1 | 0

2.03 ГБ

В этой теме нет новых непрочитанных сообщений. Амитивилль 4: Зло спасается / Amityville: The Evil Escapes [ужасы, 1989] DVDRip, Avo

salma3

0 | 0

1.43 ГБ

В этой теме нет новых непрочитанных сообщений. Jasmine Jae Is Evil / Дьяволица Jasmine Jae (Various, Evil Angel) [2017 г., Big Tits, Gonzo, Anal, DVDRip]

salma3

3 | 0

2.46 ГБ


Начать новую тему Ответить на тему  [ 1 сообщение ] 




Для Мосгорсуда, Роскомнадзора и рекламодателей:: mosgorsud-torrent[собачка]yandex.ru
cron