Торрент файл
скачать торрент магнет ссылка Добавлен: 07 сен 2017, 20:49
Размер: 1.44 ГБ
Сидеров: 0
Личеров: 19
Статус: (salma3)
Автор

СообщениеДобавлено: 07 сен 2017, 20:49 

Не в сети
Супермодератор
Аватара пользователя
Дата регистрации:
15 фев 2012, 16:44
Возраст: 28
Спасибо: 7163 / 2147
Сообщения: 61793
Год выхода: 2009
Жанр: боевик, триллер, криминал
Режиссер: Джеймс МакТиг

В ролях: Рэйн, Ли Джун, Джонатан Чан-Пинсли, Иль-Ён Ким, Юки Ивамото, Бен Майлз, Наоми Харрис, Санг Кенг, Лин Дэн Пэм, Ю Фэнг

О фильме: Рейзо — один из самых опасных убийц-ниндзя в мире. Еще ребенком его превратили в профессионального убийцу члены клана «Озуну» — секретной организации, чье существование до сих пор считалось выдумкой. Рейзо, преследуемый муками совести из-за беспощадного убийства своего друга кланом Озуну, сбегает от своих. Но тайные кланы не отпускают «своих» просто так…



Страна: США, Германия
Продолжительность: 01:38:31
Перевод: Авторский (одноголосый, закадровый) [М.Чадов ]

Файл
Кодек: XviD
Качество: HDRip
Видео: 720x304 (2.37:1), 24 fps, XviD build 73 ~1641 kbps avg, 0.31 bit/pixel
Звук: 48 kHz, AC3 Dolby Digital, 3/2 (L,C,R,l,r) + LFE ch, ~448 kbps



General
Complete name : Ninja.Assassin.2009.HDRip.ot.Portablius.avi
Format : AVI
Format/Info : Audio Video Interleave
File size : 1.44 GiB
Duration : 1 h 38 min
Overall bit rate : 2 099 kb/s
Writing application : VirtualDubMod 1.5.10.3 | http://www.virtualdub-fr.org || (build 2550/release)
Writing library : VirtualDubMod build 2550/release

Video
ID : 0
Format : MPEG-4 Visual
Format profile : Advanced Simple@L5
Format settings, BVOP : 1
Format settings, QPel : No
Format settings, GMC : No warppoints
Format settings, Matrix : Custom
Codec ID : XVID
Codec ID/Hint : XviD
Duration : 1 h 38 min
Bit rate : 1 642 kb/s
Width : 720 pixels
Height : 304 pixels
Display aspect ratio : 2.35:1
Frame rate : 24.000 FPS
Color space : YUV
Chroma subsampling : 4:2:0
Bit depth : 8 bits
Scan type : Progressive
Compression mode : Lossy
Bits/(Pixel*Frame) : 0.313
Stream size : 1.13 GiB (78%)
Writing library : XviD 73

Audio
ID : 1
Format : AC-3
Format/Info : Audio Coding 3
Format settings, Endianness : Big
Codec ID : 2000
Duration : 1 h 38 min
Bit rate mode : Constant
Bit rate : 448 kb/s
Channel(s) : 6 channels
Channel positions : Front: L C R, Side: L R, LFE
Sampling rate : 48.0 kHz
Frame rate : 31.250 FPS (1536 spf)
Bit depth : 16 bits
Compression mode : Lossy
Stream size : 316 MiB (21%)
Alignment : Split accross interleaves
Interleave, duration : 42 ms (1.00 video frame)
Interleave, preload duratio : 500 ms
Service kind : Complete Main



_________________
Проголосуй за трекер Открытый торрент трекер - RUS-MEDIA.ORG

Проголосуй Открытый торрент трекер - RUS-MEDIA.ORG


Вернуться к началу
 Профиль Отправить личное сообщение  
 
   Похожие торренты   Автор   Торрент   Размер 
В этой теме нет новых непрочитанных сообщений. Ниндзя-убийца / Ninja Assassin [Боевик, триллер, криминал, 2009] HDRip, Dub

salma3

47 | 2

1.46 ГБ

В этой теме нет новых непрочитанных сообщений. Ниндзя-убийца / Ninja Assassin [боевик, триллер, криминал, 2009] BDRip 720p, Dub

salma3

165 | 37

4.67 ГБ

В этой теме нет новых непрочитанных сообщений. Ниндзя: Шаг в неизвестность / Ninja Immovable Heart [фантастика, боевик, триллер, 2014] HDRip, Mvo

salma3

2021 | 191

1.46 ГБ

В этой теме нет новых непрочитанных сообщений. Ниндзя / Ninja [боевик, 2009] BDRip-AVC, Dvo

salma3

0 | 0

1.37 ГБ

В этой теме нет новых непрочитанных сообщений. Убийца / The Assassin / Nie yin niang (Хоу Сяосянь) [боевик, драма, 2015] HDRip, dvo

Dracon

608 | 29

2.05 ГБ

В этой теме нет новых непрочитанных сообщений. Американский ниндзя 3: Кровавая охота / American Ninja 3: Blood Hunt [боевик, драма, 1989] HDRip, Mvo [СТС]

salma3

36 | 12

1.45 ГБ

В этой теме нет новых непрочитанных сообщений. Черепашки-ниндзя 2 / Teenage Mutant Ninja Turtles: Out of the Shadows [Фантастика, Боевик, Комедия, 2016] HDRip, Avo [Живов]

salma3

10 | 2

740.6 МБ


Начать новую тему Ответить на тему  [ 1 сообщение ] 




Для Мосгорсуда, Роскомнадзора и рекламодателей:: mosgorsud-torrent[собачка]yandex.ru
cron