Торрент файл
скачать торрент магнет ссылка Добавлен: 07 сен 2017, 12:18
Размер: 1.45 ГБ
Сидеров: 66
Личеров: 22
Статус: (salma3)
Автор

СообщениеДобавлено: 07 сен 2017, 12:18 

Не в сети
Супермодератор
Аватара пользователя
Дата регистрации:
15 фев 2012, 16:44
Возраст: 29
Спасибо: 7380 / 2147
Сообщения: 76240
Год выхода: 2016
Жанр: драма
Режиссер: Джим Шеридан

В ролях: Руни Мара, Эйдан Тернер, Тео Джеймс, Эрик Бана, Ванесса Редгрейв, Сьюзэн Линч, Джек Рейнор, Эдриан Данбар, Полин Маклин, Том Вон-Лолор

О фильме:
Розанна Макналти, в молодости — неотразимая жизнелюбивая красавица, большую часть жизни провела в психиатрической клинике. Розанна находилась за решеткой так долго, что уже никто не помнил, почему она там оказалась. Когда в клинике появился очередной главврач, доктор Грин, судьба загадочной пациентки вызвала его особый интерес. Однажды Грин обнаружил спрятанный дневник Розанны. В течение нескольких десятилетий она записывала свои воспоминания. В этих мемуарах — тайна ее заключения и рассказ о поразительной жизни и всепоглощающей любви, страстной, мучительной, трагической…



Страна: Ирландия
Продолжительность: 01:43:46
Перевод: Профессиональный (полное дублирование) [Cinema Prestige]

Качество: WEB-DLRip-AVC
Видео: 960x400 (2.40:1), 25.000 fps, MPEG-4 AVC ~1 621 kbps avg
Аудио: 48.0 kHz, AC3 Dolby Digital, 3/2 (L,C,R,l,r) + LFE ch, ~384 kbps



General
Complete name : Скрижали судьбы (2016) WEB-DLRip-AVC_ivanes20031987.mkv
Format : Matroska
Format version : Version 2
File size : 1.45 GiB
Duration : 1 h 43 min
Overall bit rate : 2 005 kb/s
Encoded date : UTC 2017-09-06 13:17:14
Writing application : mkvmerge v7.8.0 ('River Man') 32bit built on Apr 3 2015 12:11:22
Writing library : libebml v1.3.1 + libmatroska v1.4.2

Video
ID : 1
Format : AVC
Format/Info : Advanced Video Codec
Format profile : High@L4.1
Format settings, CABAC : Yes
Format settings, RefFrames : 11 frames
Codec ID : V_MPEG4/ISO/AVC
Duration : 1 h 43 min
Bit rate : 1 621 kb/s
Width : 960 pixels
Height : 400 pixels
Display aspect ratio : 2.40:1
Frame rate mode : Constant
Frame rate : 25.000 FPS
Color space : YUV
Chroma subsampling : 4:2:0
Bit depth : 8 bits
Scan type : Progressive
Bits/(Pixel*Frame) : 0.169
Stream size : 1.15 GiB (79%)
Writing library : x264 core 152 r2851kMod ba24899
Encoding settings : cabac=1 / ref=11 / deblock=1:-3:-2 / analyse=0x3:0x113 / me=umh / subme=10 / psy=1 / fade_compensate=0.00 / psy_rd=1.00:0.00 / mixed_ref=1 / me_range=32 / chroma_me=1 / trellis=2 / 8x8dct=1 / cqm=0 / deadzone=21,11 / fast_pskip=0 / chroma_qp_offset=-2 / threads=12 / lookahead_threads=3 / sliced_threads=0 / nr=0 / decimate=0 / interlaced=0 / bluray_compat=0 / constrained_intra=0 / bframes=10 / b_pyramid=2 / b_adapt=2 / b_bias=0 / direct=1 / weightb=1 / open_gop=0 / weightp=2 / keyint=250 / keyint_min=25 / scenecut=40 / intra_refresh=0 / rc_lookahead=40 / rc=2pass / mbtree=0 / bitrate=1621 / ratetol=1.0 / qcomp=0.60 / qpmin=0 / qpmax=69 / qpstep=4 / cplxblur=20.0 / qblur=0.5 / vbv_maxrate=50000 / vbv_bufsize=62500 / nal_hrd=none / filler=0 / ip_ratio=1.40 / pb_ratio=1.30 / aq=1:1.00
Default : Yes
Forced : No

Audio
ID : 2
Format : AC-3
Format/Info : Audio Coding 3
Format settings, Endianness : Big
Codec ID : A_AC3
Duration : 1 h 43 min
Bit rate mode : Constant
Bit rate : 384 kb/s
Channel(s) : 6 channels
Channel positions : Front: L C R, Side: L R, LFE
Sampling rate : 48.0 kHz
Frame rate : 31.250 FPS (1536 SPF)
Bit depth : 16 bits
Compression mode : Lossy
Stream size : 285 MiB (19%)
Service kind : Complete Main
Default : Yes
Forced : No

Релиз от: vanes20031987


_________________
Проголосуй за трекер Открытый торрент трекер - RUS-MEDIA.ORG

Проголосуй Открытый торрент трекер - RUS-MEDIA.ORG


Вернуться к началу
 Профиль Отправить личное сообщение  
 
   Похожие торренты   Автор   Торрент   Размер 
В этой теме нет новых непрочитанных сообщений. Скрижали судьбы / The Secret Scripture [драма, 2016] WEB-DLRip, Dub

salma3

227 | 6

1.41 ГБ

В этой теме нет новых непрочитанных сообщений. Скрижали судьбы / The Secret Scripture [Драма, 2016] BDRip, Dub iTunes]

salma3

296 | 33

1.41 ГБ

В этой теме нет новых непрочитанных сообщений. Скрижали судьбы / The Secret Scripture [Драма, 2016] BDRip 720p, Dub iTunes]

salma3

108 | 14

3.82 ГБ

В этой теме нет новых непрочитанных сообщений. Скрижали судьбы / Thе Sесrеt Sсrірturе (Джим Шеридан / Jim Sheridan) [2016г., Ирландия, драма, WЕBDLRір] DUB

Alfredovich

104 | 12

1.37 ГБ

В этой теме нет новых непрочитанных сообщений. Любовь и пингвины / Le secret des banquises [Фантастика, драма, мелодрама, 2016] WEB-DLRip, Mvo

salma3

82 | 29

697.73 МБ

В этой теме нет новых непрочитанных сообщений. Любовь и пингвины / Le secret des banquises [Фантастика, драма, мелодрама, комедия, 2016] WEB-DLRip, Mvo

salma3

165 | 56

1.36 ГБ

В этой теме нет новых непрочитанных сообщений. Любовь и пингвины / Le secret des banquises [фантастика, драма, мелодрама, комедия, 2016] WEB-DLRip, Mvo [Line]

salma3

1124 | 125

1.37 ГБ


Начать новую тему Ответить на тему  [ 1 сообщение ] 




Для Мосгорсуда, Роскомнадзора и рекламодателей:: mosgorsud-torrent[собачка]yandex.ru
cron