Торрент файл
скачать торрент магнет ссылка Добавлен: 06 сен 2017, 22:27
Размер: 745.7 МБ
Сидеров: 172
Личеров: 27
Статус: (salma3)
Автор

СообщениеДобавлено: 06 сен 2017, 22:27 

Не в сети
Супермодератор
Аватара пользователя
Дата регистрации:
15 фев 2012, 16:44
Возраст: 28
Спасибо: 6644 / 2146
Сообщения: 45843
Год выхода: 2010
Жанр: Ужасы
Режиссер: Джим Микл

В ролях: Даниэль Харрис, Коннор Паоло, Келли МакГиллис, Бонни Деннисон, Майкл Серверис, Ник Дамичи, Шон Нельсон, Чэнс Келли, Адам Скаримболо, Марианн Хэйгэн

О фильме :
В государстве наступил кризис. Города и села потихоньку разрушаются, но это далеко не самая страшная беда. Куда страшнее то, что страну захлестнула эпидемия вампиризма. Люди боятся выходить на улицу, ведь там их может поджидать кровосос. Но есть и те, кто не боятся вступать в поединки с ночными монстрами. Их называют «охотники на вампиров». Один из самых успешных и популярных охотников носит прозвище Мистер. Молодой человек просит его помочь добраться до Нового Эдема, который находится где-то на Севере. Дорога туда трудна и опасно, но для Мистера нет непреодолимых препятствий.



Страна: США
Продолжительность: 01:38:30
Перевод: Дублированный [лицензия]

Файл
Формат: MKV
Качество: HDRip-AVC
Видео: MPEG-4 AVC, 752x312, ~ 985 Кбит/с
Аудио: AAC-LC, 2 ch, ~72 Кбит/с

Общее
Уникальный идентификатор : 214726201530316157282602038564528584932 (0xA18AC31B6C07C999A6E01935B417F8E4)
Полное имя : D:MOVIESStake.Land.2010.ExKinoRay.mkv
Формат : Matroska
Версия формата : Version 4 / Version 2
Размер файла : 746 Мбайт
Продолжительность : 1 ч. 38 м.
Общий поток : 1059 Кбит/сек
Дата кодирования : UTC 2017-09-06 17:58:37
Программа кодирования : mkvmerge v15.0.0 ('Duel with the Devil') 64-bit
Библиотека кодирования : libebml v1.3.5 + libmatroska v1.4.5

Видео
Идентификатор : 1
Формат : AVC
Формат/Информация : Advanced Video Codec
Профиль формата : High@L4.1
Параметр CABAC формата : Да
Параметр RefFrames формата : 10 кадров
Идентификатор кодека : V_MPEG4/ISO/AVC
Продолжительность : 1 ч. 38 м.
Битрейт : 985 Кбит/сек
Ширина : 752 пикселя
Высота : 312 пикселей
Соотношение сторон : 2,40:1
Режим частоты кадров : Постоянный
Частота кадров : 23,976 (24000/1001) кадра/сек
Цветовое пространство : YUV
Субдискретизация насыщенности : 4:2:0
Битовая глубина : 8 бит
Тип развёртки : Прогрессивная
Бит/(Пиксели*Кадры) : 0.175
Размер потока : 694 Мбайт (93%)
Библиотека кодирования : x264 core 152 r2851kMod ba24899
Настройки программы : cabac=1 / ref=10 / deblock=1:-3:-3 / analyse=0x3:0x113 / me=umh / subme=11 / psy=1 / fade_compensate=0.00 / psy_rd=1.00:0.10 / mixed_ref=1 / me_range=32 / chroma_me=1 / trellis=2 / 8x8dct=1 / cqm=0 / deadzone=21,11 / fast_pskip=0 / chroma_qp_offset=-3 / threads=6 / lookahead_threads=1 / sliced_threads=0 / nr=0 / decimate=0 / interlaced=0 / bluray_compat=0 / constrained_intra=0 / bframes=10 / b_pyramid=2 / b_adapt=2 / b_bias=0 / direct=3 / weightb=1 / open_gop=0 / weightp=2 / keyint=240 / keyint_min=23 / scenecut=40 / intra_refresh=0 / rc_lookahead=40 / rc=2pass / mbtree=1 / bitrate=985 / ratetol=1.0 / qcomp=0.60 / qpmin=0 / qpmax=69 / qpstep=4 / cplxblur=20.0 / qblur=0.5 / vbv_maxrate=50000 / vbv_bufsize=62500 / nal_hrd=none / filler=0 / ip_ratio=1.40 / aq=3:1.00
Default : Да
Forced : Нет

Аудио
Идентификатор : 2
Формат : AAC
Формат/Информация : Advanced Audio Codec
Профиль формата : LC
Идентификатор кодека : A_AAC
Продолжительность : 1 ч. 38 м.
Битрейт : 72,0 Кбит/сек
Каналы : 2 канала
Расположение каналов : Front: L R
Частота : 48,0 КГц
Частота кадров : 46,875 кадров/сек (1024 SPF)
Метод сжатия : С потерями
Задержка видео : 9 мс.
Размер потока : 50,7 Мбайт (7%)
Default : Да
Forced : Нет

Релиз от:


_________________
Проголосуй за трекер Открытый торрент трекер - RUS-MEDIA.ORG

Проголосуй Открытый торрент трекер - RUS-MEDIA.ORG



реклама партнёра


Вернуться к началу
 Профиль Отправить личное сообщение  
 
   Похожие торренты   Автор   Торрент   Размер 
В этой теме нет новых непрочитанных сообщений. Земля вампиров 2 / Stake Land 2 / The Stakelander [ужасы, боевик, 2016] HDTVRip-AVC, Avo

salma3

647 | 58

711.67 МБ

В этой теме нет новых непрочитанных сообщений. Земля вампиров 2 / The Stakelander (ужасы, боевик, 2016) HDTVRip 720p | L1

marya111

1019 | 126

1.71 ГБ

В этой теме нет новых непрочитанных сообщений. Земля мертвых / Land of the Dead [Ужасы, фантастика, триллер, 2005] BDRip-AVC, Mvo [Unrated]

salma3

192 | 26

746.56 МБ

В этой теме нет новых непрочитанных сообщений. No Man's Land 44 / Земля без мужчин 44 (Anton Slayer, Video Team) [2008 г., All Girl / Lesbian, Threesome, Big tits., HDRip]

salma3

0 | 0

1.26 ГБ

В этой теме нет новых непрочитанных сообщений. Ничья земля / No Man's Land [[НТВ +], 1987] HDTVRip, Dvo

salma3

0 | 0

1.37 ГБ

В этой теме нет новых непрочитанных сообщений. Ничья земля / No Man's Land [[НТВ +], 1987] HDTVRip, Dvo

salma3

0 | 0

745.9 МБ

В этой теме нет новых непрочитанных сообщений. Земля обетованная / The Land [драма, 2016] WEB-DLRip, Mvo

salma3

73 | 11

1.37 ГБ


Начать новую тему Ответить на тему  [ 1 сообщение ] 




Для Мосгорсуда, Роскомнадзора и рекламодателей:: mosgorsud-torrent[собачка]yandex.ru