Торрент файл
скачать торрент магнет ссылка Добавлен: 06 сен 2017, 20:41
Размер: 1.37 ГБ
Сидеров: 13
Личеров: 1
Статус: (salma3)
Автор

СообщениеДобавлено: 06 сен 2017, 20:41 

Не в сети
Супермодератор
Аватара пользователя
Дата регистрации:
15 фев 2012, 16:44
Возраст: 28
Спасибо: 6565 / 2130
Сообщения: 43739
Год выхода: 1980
Жанр: Драма, мелодрама, военный
Режиссер: Франсуа Трюффо

В ролях: Катрин Денёв, Жерар Депардье, Андреа Ферреоль, Полетт Дюбо, Жан-Луи Ришар, Морис Риш, Сабин Одепен, Хайнц Беннент, Пьер Бело, Роуз Тьери, Жакоб Вайсблут, Марсель Бербер, Рене Дюпре, Жан Пуаре,

О фильме:
Вторая Мировая. Оккупированный Париж. Общество расколото на молчаливое большинство, невидимых партизан, открытых коллаборационистов и жертв режима, скрывающихся от нацистской расправы. К последним относится польский еврей Лукас Штайнер, театральный режиссер и муж ведущей актрисы — Марион Штайнер. С риском для себя и всего коллектива Марион решает спрятать мужа в подвале театра, откуда Лукас продолжает вдохновенно, через жену, готовить новую премьеру. На Марион тем временем ложится одна забота за другой: тайно носить еду в подвал (что в условиях тотального доносительства превращается в целое искусство); распространять слухи, что ее муж сбежал из города; аккуратно сдерживать натиск влиятельного немецкого ухажера. Вдобавок Марион увлекается коллегой — актером Бернаром.



Страна: Франция
Продолжительность: 02:12:18
Перевод: Профессиональный (многоголосый, закадровый) - Кармен Видео

Файл
Кодек: XviD
Качество: HDRip
Видео: 720x432 (1.67:1) (5:3), 23.976 fps, XviD build 73 ~1284 kbps avg, 0.17 bit/pixel
Звук: 48 kHz, AC3 Dolby Digital, 2/0 (L,R) ch, ~192 kbps

Семпл

General
Complete name : D:Изготовление рипаLe.dernier.metro.(1980).HDRip by shkiper.avi
Format : AVI
Format/Info : Audio Video Interleave
File size : 1.37 GiB
Duration : 2 h 12 min
Overall bit rate : 1 486 kb/s
Writing application : VirtualDubMod 1.5.10.3 | http://www.virtualdub-fr.org || (build 2550/release)
Writing library : VirtualDubMod build 2550/release

Video
ID : 0
Format : MPEG-4 Visual
Format profile : Advanced Simple@L5
Format settings, BVOP : 1
Format settings, QPel : No
Format settings, GMC : No warppoints
Format settings, Matrix : Custom
Codec ID : XVID
Codec ID/Hint : XviD
Duration : 2 h 12 min
Bit rate : 1 285 kb/s
Width : 720 pixels
Height : 432 pixels
Display aspect ratio : 5:3
Frame rate : 23.976 (24000/1001) FPS
Original frame rate : 23.976 (23976/1000) FPS
Color space : YUV
Chroma subsampling : 4:2:0
Bit depth : 8 bits
Scan type : Progressive
Compression mode : Lossy
Bits/(Pixel*Frame) : 0.172
Stream size : 1.19 GiB (86%)
Writing library : XviD 73

Audio
ID : 1
Format : AC-3
Format/Info : Audio Coding 3
Mode extension : CM (complete main)
Format settings, Endianness : Big
Codec ID : 2000
Duration : 2 h 12 min
Bit rate mode : Constant
Bit rate : 192 kb/s
Channel(s) : 2 channels
Channel positions : Front: L R
Sampling rate : 48.0 kHz
Frame rate : 31.250 FPS (1536 spf)
Bit depth : 16 bits
Compression mode : Lossy
Stream size : 182 MiB (13%)
Alignment : Split accross interleaves
Interleave, duration : 42 ms (1.00 video frame)
Interleave, preload duratio : 500 ms


Релиз от:


_________________
Проголосуй за трекер Открытый торрент трекер - RUS-MEDIA.ORG

Проголосуй Открытый торрент трекер - RUS-MEDIA.ORG



реклама партнёра


Вернуться к началу
 Профиль Отправить личное сообщение  
 
   Похожие торренты   Автор   Торрент   Размер 
В этой теме нет новых непрочитанных сообщений. Последний бриллиант / Le dernier diamant [драма, Криминал, 2014] HDRip, Mvo

Dracon

10 | 5

2.05 ГБ

В этой теме нет новых непрочитанных сообщений. Последний бриллиант / Le dernier diamant [драма, криминал, 2014] HDRip-AVC, Mvo

salma3

118 | 33

1.45 ГБ

В этой теме нет новых непрочитанных сообщений. Последний бриллиант / Le dernier diamant [драма, Криминал, 2014] HDRip, Mvo

Dracon

11 | 4

1.46 ГБ

В этой теме нет новых непрочитанных сообщений. Последнее турне /  Hin und weg (Кристиан Цюберт) [Драма, Комедия, 2014] HDRip, avo

Dracon

1 | 0

1.46 ГБ

В этой теме нет новых непрочитанных сообщений. Последнее воскресение / The Last Station [драма, мелодрама, биография, 2009] BDRip-AVC, Dub+Sub

salma3

37 | 2

1.45 ГБ

В этой теме нет новых непрочитанных сообщений. Урожай дьявола / Bitter Harvest [драма, мелодрама, военный, 2017] HDRip, Mvo

salma3

1768 | 230

1.37 ГБ

В этой теме нет новых непрочитанных сообщений. Горы и камни / The Ottoman Lieutenant [военный, драма, мелодрама, 2017] HDRip, Mvo

salma3

778 | 177

1.46 ГБ


Начать новую тему Ответить на тему  [ 1 сообщение ] 




Для Мосгорсуда, Роскомнадзора и рекламодателей:: mosgorsud-torrent[собачка]yandex.ru