Торрент файл
скачать торрент магнет ссылка Добавлен: 05 сен 2017, 21:54
Размер: 2.19 ГБ
Сидеров: 26
Личеров: 7
Статус: (salma3)
Автор

СообщениеДобавлено: 05 сен 2017, 21:54 

Не в сети
Супермодератор
Аватара пользователя
Дата регистрации:
15 фев 2012, 16:44
Возраст: 28
Спасибо: 7290 / 2147
Сообщения: 70611
Год выпуска: 2009
Жанр: драма, мелодрама, военный
Режиссер: Орен Моверман

В ролях: Вуди Харрельсон, Бен Фостер, Джена Мэлоун, Имонн Уолкер, Лиза Джойс, Стив Бушеми, Питер Френсис Джеймс, Саманта Мортон

Описание:
Обязанности сержанта армии Соединенных Штатов Уилла Монтгомери просты и печальны — он должен лично сообщать жёнам погибших солдат о том, что их мужья не вернутся с фронта живыми. Сложно представить этическую дилемму «посланника смерти», ведь у сержанта Монтгомери появились чувства к одной из солдатских вдов.



Страна: США
Продолжительность: 01:52:55
Перевод: Профессиональный (многоголосый, закадровый)
cубтитры: русские, английские

Формат: BDRip-AVC
Видео: 1120x476 (2.35:1), 23.976 fps, AVC MPEG-4 (H.264), ~2272 kbps, 0.178 bit/pixel
Аудио1: Русский: 48 kHz, AC3 Dolby Digital, 2 ch, ~224 kbps
Аудио2: Английский:48 kHz, AC3 Dolby Digital, 2 ch, ~224 kbps

Формат : Matroska
Версия формата : Version 2
Размер файла : 2,19 Гбайт
Продолжительность : 1 ч. 52 м.
Общий поток : 2776 Кбит/сек
Название фильма : Посланник / The Messenger (2009)__RGTru_cw
Дата кодирования : UTC 2015-08-09 11:01:35
Программа кодирования : mkvmerge v7.8.0 ('River Man') 32bit built on Apr 3 2015 12:11:22
Библиотека кодирования : libebml v1.3.1 + libmatroska v1.4.2

Видео
Идентификатор : 1
Формат : AVC
Формат/Информация : Advanced Video Codec
Профиль формата :
Параметр CABAC формата : Да
Параметр ReFrames формата : 11 кадров
Идентификатор кодека : V_MPEG4/ISO/AVC
Продолжительность : 1 ч. 52 м.
Битрейт : 2272 Кбит/сек
Ширина : 1120 пикселей
Высота : 476 пикселей
Соотношение сторон : 2,35:1
Режим частоты кадров : Постоянный
Частота кадров : 23,976 кадра/сек
Цветовое пространство : YUV
Субдискретизация насыщенности : 4:2:0
Битовая глубина : 8 бит
Тип развёртки : Прогрессивная
Бит/(Пиксели*Кадры) : 0.178
Размер потока : 1,79 Гбайт (82%)
Заголовок : The_Messenger_(2009)_BDRip_cw
Библиотека кодирования : x264 core 146 r2538 121396c
Настройки программы : cabac=1 / ref=11 / deblock=1:-3:-3 / analyse=0x3:0x113 / me=umh / subme=11 / psy=1 / psy_rd=1.00:0.00 / mixed_ref=1 / me_range=32 / chroma_me=1 / trellis=2 / 8x8dct=1 / cqm=0 / deadzone=21,11 / fast_pskip=1 / chroma_qp_offset=-2 / threads=4 / lookahead_threads=1 / sliced_threads=0 / nr=0 / decimate=1 / interlaced=0 / bluray_compat=0 / constrained_intra=0 / bframes=12 / b_pyramid=2 / b_adapt=2 / b_bias=0 / direct=3 / weightb=1 / open_gop=0 / weightp=2 / keyint=240 / keyint_min=23 / scenecut=40 / intra_refresh=0 / rc_lookahead=60 / rc=crf / mbtree=0 / crf=17.4 / qcomp=0.60 / qpmin=0 / qpmax=69 / qpstep=4 / vbv_maxrate=50000 / vbv_bufsize=62500 / crf_max=0.0 / nal_hrd=none / filler=0 / ip_ratio=1.40 / pb_ratio=1.30 / aq=3:0.60 / zones=155234,162432,q=35
Язык : English
Default : Да
Forced : Нет
Цветовой диапазон : Limited
Основные цвета : BT.709
Характеристики трансфера : BT.709
Коэффициенты матрицы : BT.709

Аудио #1
Идентификатор : 2
Формат : AC-3
Формат/Информация : Audio Coding 3
Расширение режима : CM (complete main)
Параметр Endianness формата : Big
Идентификатор кодека : A_AC3
Продолжительность : 1 ч. 52 м.
Вид битрейта : Постоянный
Битрейт : 224 Кбит/сек
Каналы : 2 канала
Расположение каналов : Front: L R
Частота : 48,0 КГц
Битовая глубина : 16 бит
Метод сжатия : С потерями
Размер потока : 181 Мбайт (8%)
Заголовок : MVO
Язык : Russian
Default : Да
Forced : Нет

Аудио #2
Идентификатор : 3
Формат : AC-3
Формат/Информация : Audio Coding 3
Расширение режима : CM (complete main)
Параметр Endianness формата : Big
Идентификатор кодека : A_AC3
Продолжительность : 1 ч. 52 м.
Вид битрейта : Постоянный
Битрейт : 224 Кбит/сек
Каналы : 2 канала
Расположение каналов : Front: L R
Частота : 48,0 КГц
Битовая глубина : 16 бит
Метод сжатия : С потерями
Размер потока : 181 Мбайт (8%)
Заголовок : Original
Язык : English
Default : Нет
Forced : Нет

Текст #1
Идентификатор : 4
Формат : UTF-8
Идентификатор кодека : S_TEXT/UTF8
Идентификатор кодека/Информация : UTF-8 Plain Text
Язык : Russian
Default : Нет
Forced : Нет

Текст #2
Идентификатор : 5
Формат : UTF-8
Идентификатор кодека : S_TEXT/UTF8
Идентификатор кодека/Информация : UTF-8 Plain Text
Язык : English
Default : Нет
Forced : Нет

Меню
00:00:00.000 : :1. Kelly
00:05:24.615 : :2. Men of Solid Stature
00:12:00.136 : :3. Private First Class Leroy Burrell
00:18:46.792 : :4. "I Got My Baptism Too"
00:25:29.903 : :5. Specialist Eric Martin
00:33:54.073 : :6. Phil
00:39:13.225 : :7. Ice, Hot Water, Lemon
00:42:32.091 : :8. Olivia and Will
00:47:31.431 : :9. Corporal Mario Galindo
00:54:47.450 : :10. Private Patricia Vasquez
00:59:16.094 : :11. Pizza and Broccoli
01:04:25.278 : :12. Widow's Story
01:12:41.899 : :13. Walton Flanigan
01:18:24.199 : :14. R & R
01:24:28.521 : :15. Crashing the Party
01:33:47.288 : :16. Will In Iraq
01:43:41.006 : :17. "I'll Write You a Letter"
01:47:10.006 : :18. End Credits





_________________
Проголосуй за трекер Открытый торрент трекер - RUS-MEDIA.ORG

Проголосуй Открытый торрент трекер - RUS-MEDIA.ORG


Вернуться к началу
 Профиль Отправить личное сообщение  
 
   Похожие торренты   Автор   Торрент   Размер 
В этой теме нет новых непрочитанных сообщений. Посланник смерти / Messenger of Death [боевик, триллер, криминал, 1988] BDRip, Mvo

salma3

0 | 0

1.45 ГБ

В этой теме нет новых непрочитанных сообщений. Посланник смерти / Messenger of Death [боевик, триллер, криминал, 1988] BDRip 720p, Mvo

salma3

22 | 27

6.35 ГБ

В этой теме нет новых непрочитанных сообщений. Посланник / The Messenger [Ужасы, триллер, драма, детектив, 2015] WEB-DLRip, dvo

Dracon

298 | 12

1.45 ГБ

В этой теме нет новых непрочитанных сообщений. Баллада о солдате [военный, драма, мелодрама, 1959] BDRip-AVC

salma3

9 | 8

2.12 ГБ

В этой теме нет новых непрочитанных сообщений. Касабланка / Casablanca [Драма, мелодрама, военный, 1942] BDRip-AVC, Mvo

salma3

2 | 21

3.17 ГБ

В этой теме нет новых непрочитанных сообщений. Баллада о солдате [военный, драма, мелодрама, 1959] BDRip

salma3

12 | 6

1.45 ГБ

В этой теме нет новых непрочитанных сообщений. Коровы / Vacas [драма, мелодрама, военный, 1992] BDRip, Mvo

salma3

20 | 6

1.45 ГБ


Начать новую тему Ответить на тему  [ 1 сообщение ] 




Для Мосгорсуда, Роскомнадзора и рекламодателей:: mosgorsud-torrent[собачка]yandex.ru
cron