Торрент файл
скачать торрент магнет ссылка Добавлен: 05 сен 2017, 11:18
Размер: 743.81 МБ
Сидеров: 37
Личеров: 9
Статус: (salma3)
Автор

СообщениеДобавлено: 05 сен 2017, 11:18 

В сети
Супермодератор
Аватара пользователя
Дата регистрации:
15 фев 2012, 16:44
Возраст: 28
Спасибо: 7284 / 2147
Сообщения: 70173
Год выхода: 2011
Жанр: Триллер, драма
Режиссер: Кевин Смит / Kevin Smith

В ролях: Майкл Паркс, Майкл Ангарано, Керри Бише, Николас Браун, Кайл Галлнер, Джон Гудмен, Мелисса Лео, Кевин Поллак, Стивен Рут, Мэтт Л. Джонс

О фильме :
Три подростка отвечают на интернет-предложение сексуального характера, но все их эротические фантазии заканчиваются тем, что, очнувшись после потери сознания, они оказываются в заложниках у фанатиков религиозной общины. В стремлении направить на путь истинный сотни заблудших душ местный священник считает оправданным пролить кровь парочки согрешивших, которыми являются главные герои. В попытке спастись из ловушки сектантов они обнаруживают комнату, полностью заполненную оружием. Становится ясно, что тут все настроены агрессивно, и их агрессия, судя по количеству боевых припасов, способна уложить на лопатки тысячи. Но что сильнее: религиозная идея проповедника или животное желание выжить ни в чем не повинных парней?



Выпущено: США / Harvey Boys, The, NVSH Productions
Продолжительность: 01:28:32
Перевод: Профессиональный (полное дублирование) R5 + Авторский (одноголосый, закадровый) Дмитрий «Гоблин» Пучков / VoiceRipHQ

Файл
Формат: MKV
Качество: HDRip-AVC
Видео: MPEG-4 AVC, 720x384, ~ 1031 Кбит/с
Аудио #1: AAC-LC, 2 ch, ~72 Кбит/с |DUB: R5|
Аудио #2: AAC-LC, 2 ch, ~72 Кбит/с |AVO: Дмитрий «Гоблин» Пучков - VoiceRipHQ|

Звуковая дорога качества VoiceRipHQ (улучшенная запись со спец.показа).
Голос записан в кинотеатре на диктофон, обработан и
сведён с оригинальной дорожкой.
Исключительно для преданных ценителей переводов Гоблина!
Данный релиз - единственная возможность ознакомиться с
переводом х/ф "Красный штат" голосом Д.Ю. Пучкова!
Ценителям качественного звука СТРОГО НЕ РЕКОМЕНДУЕТСЯ!
Общее
Уникальный идентификатор : 217945770044518318213555725801534490273 (0xA3F6D417247DF8DF890B674B07EF86A1)
Полное имя : D:MOVIESRed State.2011.ExKinoRay.mkv
Формат : Matroska
Версия формата : Version 4 / Version 2
Размер файла : 744 Мбайт
Продолжительность : 1 ч. 28 м.
Общий поток : 1175 Кбит/сек
Дата кодирования : UTC 2017-09-05 05:22:22
Программа кодирования : mkvmerge v15.0.0 ('Duel with the Devil') 64-bit
Библиотека кодирования : libebml v1.3.5 + libmatroska v1.4.5

Видео
Идентификатор : 1
Формат : AVC
Формат/Информация : Advanced Video Codec
Профиль формата : High@L4.1
Параметр CABAC формата : Да
Параметр RefFrames формата : 10 кадров
Идентификатор кодека : V_MPEG4/ISO/AVC
Продолжительность : 1 ч. 28 м.
Битрейт : 1031 Кбит/сек
Ширина : 720 пикселей
Высота : 384 пикселя
Соотношение сторон : 1,85:1
Режим частоты кадров : Постоянный
Частота кадров : 23,976 (24000/1001) кадра/сек
Цветовое пространство : YUV
Субдискретизация насыщенности : 4:2:0
Битовая глубина : 8 бит
Тип развёртки : Прогрессивная
Бит/(Пиксели*Кадры) : 0.156
Размер потока : 651 Мбайт (87%)
Библиотека кодирования : x264 core 152 r2851kMod ba24899
Настройки программы : cabac=1 / ref=10 / deblock=1:-3:-3 / analyse=0x3:0x113 / me=umh / subme=11 / psy=1 / fade_compensate=0.00 / psy_rd=1.00:0.05 / mixed_ref=1 / me_range=32 / chroma_me=1 / trellis=2 / 8x8dct=1 / cqm=0 / deadzone=21,11 / fast_pskip=0 / chroma_qp_offset=-3 / threads=6 / lookahead_threads=1 / sliced_threads=0 / nr=0 / decimate=0 / interlaced=0 / bluray_compat=0 / constrained_intra=0 / bframes=10 / b_pyramid=2 / b_adapt=2 / b_bias=0 / direct=3 / weightb=1 / open_gop=0 / weightp=2 / keyint=240 / keyint_min=23 / scenecut=40 / intra_refresh=0 / rc_lookahead=40 / rc=2pass / mbtree=1 / bitrate=1031 / ratetol=1.0 / qcomp=0.60 / qpmin=0 / qpmax=69 / qpstep=4 / cplxblur=20.0 / qblur=0.5 / vbv_maxrate=50000 / vbv_bufsize=62500 / nal_hrd=none / filler=0 / ip_ratio=1.40 / aq=3:1.00
Default : Да
Forced : Нет

Аудио #1
Идентификатор : 2
Формат : AAC
Формат/Информация : Advanced Audio Codec
Профиль формата : LC
Идентификатор кодека : A_AAC
Продолжительность : 1 ч. 28 м.
Битрейт : 72,0 Кбит/сек
Каналы : 2 канала
Расположение каналов : Front: L R
Частота : 48,0 КГц
Частота кадров : 46,875 кадров/сек (1024 SPF)
Метод сжатия : С потерями
Задержка видео : 9 мс.
Размер потока : 45,6 Мбайт (6%)
Заголовок : R5
Default : Да
Forced : Нет

Аудио #2
Идентификатор : 3
Формат : AAC
Формат/Информация : Advanced Audio Codec
Профиль формата : LC
Идентификатор кодека : A_AAC
Продолжительность : 1 ч. 28 м.
Битрейт : 72,0 Кбит/сек
Каналы : 2 канала
Расположение каналов : Front: L R
Частота : 48,0 КГц
Частота кадров : 46,875 кадров/сек (1024 SPF)
Метод сжатия : С потерями
Задержка видео : 9 мс.
Размер потока : 45,6 Мбайт (6%)
Заголовок : Goblin
Default : Нет
Forced : Нет




Релиз от:


_________________
Проголосуй за трекер Открытый торрент трекер - RUS-MEDIA.ORG

Проголосуй Открытый торрент трекер - RUS-MEDIA.ORG


Вернуться к началу
 Профиль Отправить личное сообщение  
 
   Похожие торренты   Автор   Торрент   Размер 
В этой теме нет новых непрочитанных сообщений. Красный штат / Red State [Триллер, драма, 2011] BDRip 1080p, Dub

salma3

16 | 15

6.17 ГБ

В этой теме нет новых непрочитанных сообщений. Красный штат / Red State [Триллер, драма, 2011] BDRip 720p, Dub

salma3

17 | 12

7.93 ГБ

В этой теме нет новых непрочитанных сообщений. Свободный штат Джонса / Free State of Jones [Боевик, драма, военный, биография, история, 2016] HDRip, Мvo

salma3

1997 | 334

1.37 ГБ

В этой теме нет новых непрочитанных сообщений. Свободный штат Джонса / Free State of Jones ( боевик, драма, военный, биография, история, 2016) Blu-Ray 1080p | L1

marya111

48 | 32

41.5 ГБ

В этой теме нет новых непрочитанных сообщений. Свободный штат Джонса / Free State of Jones [Боевик, драма, военный, биография, история, 2016] BDRip 720p, Мvo

salma3

394 | 50

6.44 ГБ

В этой теме нет новых непрочитанных сообщений. Свободный штат Джонса / Free State of Jones [Боевик, драма, военный, биография, история, 2016] BDRemux 1080p, Dvo

salma3

16 | 19

29.93 ГБ

В этой теме нет новых непрочитанных сообщений. Свободный штат Джонса / Free State of Jones [Боевик, драма, военный, биография, история, 2016] BDRip 1080p, Мvo

salma3

108 | 11

12 ГБ


Начать новую тему Ответить на тему  [ 1 сообщение ] 




Для Мосгорсуда, Роскомнадзора и рекламодателей:: mosgorsud-torrent[собачка]yandex.ru
cron