Торрент файл
скачать торрент магнет ссылка Добавлен: 04 сен 2017, 10:55
Размер: 2.17 ГБ
Сидеров: 8
Личеров: 4
Статус: (salma3)
Автор

СообщениеДобавлено: 04 сен 2017, 10:55 

В сети
Супермодератор
Аватара пользователя
Дата регистрации:
15 фев 2012, 16:44
Возраст: 28
Спасибо: 6644 / 2146
Сообщения: 45928
Год выхода: 1998
Жанр: Триллер, Детектив
Режиссер: Джэми Блэнкс

Актеры: Джаред Лето, Алисия Уитт, Ребекка Гэйхарт, Майкл Розенбаум, Лоретта Дивайн, Джошуа Джексон, Тара Рейд, Джон Невилл, Джулиан Ричингс, Роберт Инглунд, Даниэль Харрис, Наташа Грегсон Вагнер,

Описание:
Тихий студенческий городок потрясла серия кровавых убийств, совершенных с беспрецендентной жестокостью. Полиция теряется в догадках, ведь между этими жестокими преступлениями нет ничего общего. Однако студентке Натали удалось обнаружить страшную связь. На первый взгляд, она кажется невероятной: в каждом убийстве оживают городские легенды, пугающие истории из современного фольклора, передаваемые из уст в уста. Ни преподователи, ни друзья не верят девушке… и становятся следующими жертвами таинственного убийцы.



Производство: США, Франция
Продолжительность: 01:39:39
Перевод: Многоголосый закадровый, профессиональный

Качество видео:BDRip-AVC
Видео: AVC/H.264, 1024x428, ~2226 Kbps
Аудио#1: AC3, 6 ch, 448 Kbps - русский
Аудио#2: AC3, 6 ch, 448 Kbps - английский
Язык субтитров: Русский, английский
Вид субтитров: Вшитые отключаемые

Формат : Matroska
Версия формата : Version 2
Размер файла : 2,17 Гбайт
Продолжительность : 1 ч. 39 м.
Общий поток : 3122 Кбит/сек
Дата кодирования : UTC 2016-03-28 04:36:11
Программа кодирования : mkvmerge v5.3.0 ('I could have danced') built on Feb 9 2012 10:38:07
Библиотека кодирования : libebml v1.2.3 + libmatroska v1.3.0
Attachment : Yes

Видео
Идентификатор : 1
Формат : AVC
Формат/Информация : Advanced Video Codec
Профиль формата : High@L4.1
Параметр CABAC формата : Да
Параметр ReFrames формата : 11 кадров
Идентификатор кодека : V_MPEG4/ISO/AVC
Продолжительность : 1 ч. 39 м.
Битрейт : 2226 Кбит/сек
Ширина : 1024 пикселя
Высота : 428 пикселей
Соотношение сторон : 2,40:1
Режим частоты кадров : Постоянный
Частота кадров : 23,976 кадра/сек
Цветовое пространство : YUV
Субдискретизация насыщенности : 4:2:0
Битовая глубина : 8 бит
Тип развёртки : Прогрессивная
Бит/(Пиксели*Кадры) : 0.212
Размер потока : 1,51 Гбайт (69%)
Библиотека кодирования : x264 core 146 r2538 121396c
Настройки программы : cabac=1 / ref=11 / deblock=1:-1:-1 / analyse=0x3:0x133 / me=umh / subme=11 / psy=1 / psy_rd=1.00:0.15 / mixed_ref=1 / me_range=32 / chroma_me=1 / trellis=2 / 8x8dct=1 / cqm=0 / deadzone=21,11 / fast_pskip=0 / chroma_qp_offset=-3 / threads=12 / lookahead_threads=2 / sliced_threads=0 / nr=0 / decimate=0 / interlaced=0 / bluray_compat=0 / constrained_intra=0 / bframes=8 / b_pyramid=2 / b_adapt=2 / b_bias=0 / direct=3 / weightb=1 / open_gop=0 / weightp=2 / keyint=240 / keyint_min=23 / scenecut=40 / intra_refresh=0 / rc=2pass / mbtree=0 / bitrate=2226 / ratetol=1.0 / qcomp=0.60 / qpmin=0 / qpmax=69 / qpstep=4 / cplxblur=20.0 / qblur=0.5 / ip_ratio=1.40 / pb_ratio=1.30 / aq=1:0.90
Default : Да
Forced : Нет

Аудио #1
Идентификатор : 2
Формат : AC-3
Формат/Информация : Audio Coding 3
Расширение режима : CM (complete main)
Параметр Endianness формата : Big
Идентификатор кодека : A_AC3
Продолжительность : 1 ч. 39 м.
Вид битрейта : Постоянный
Битрейт : 448 Кбит/сек
Каналы : 6 каналов
Расположение каналов : Front: L C R, Side: L R, LFE
Частота : 48,0 КГц
Битовая глубина : 16 бит
Метод сжатия : С потерями
Размер потока : 319 Мбайт (14%)
Заголовок : Профессиональный многоголосый
Язык : Russian
Default : Да
Forced : Да

Аудио #2
Идентификатор : 3
Формат : AC-3
Формат/Информация : Audio Coding 3
Расширение режима : CM (complete main)
Параметр Endianness формата : Big
Идентификатор кодека : A_AC3
Продолжительность : 1 ч. 39 м.
Вид битрейта : Постоянный
Битрейт : 448 Кбит/сек
Каналы : 6 каналов
Расположение каналов : Front: L C R, Side: L R, LFE
Частота : 48,0 КГц
Битовая глубина : 16 бит
Метод сжатия : С потерями
Размер потока : 319 Мбайт (14%)
Язык : English
Default : Нет
Forced : Нет

Текст #1
Идентификатор : 4
Формат : UTF-8
Идентификатор кодека : S_TEXT/UTF8
Идентификатор кодека/Информация : UTF-8 Plain Text
Язык : Russian
Default : Нет
Forced : Нет

Текст #2
Идентификатор : 5
Формат : UTF-8
Идентификатор кодека : S_TEXT/UTF8
Идентификатор кодека/Информация : UTF-8 Plain Text
Язык : English
Default : Нет
Forced : Нет

Меню
00:00:00.000 : en:00:00:00.000
00:09:32.071 : en:00:09:32.071
00:15:11.911 : en:00:15:11.911
00:20:07.790 : en:00:20:07.790
00:25:26.108 : en:00:25:26.108
00:35:10.734 : en:00:35:10.734
00:37:52.020 : en:00:37:52.020
00:45:32.271 : en:00:45:32.271
00:50:17.264 : en:00:50:17.264
00:56:40.689 : en:00:56:40.689
00:59:36.114 : en:00:59:36.114
01:09:00.094 : en:01:09:00.094
01:15:18.723 : en:01:15:18.723
01:19:33.268 : en:01:19:33.268
01:27:00.048 : en:01:27:00.048
01:31:04.668 : en:01:31:04.668


Релиз от: K.E.N (NNM-CLUB)


_________________
Проголосуй за трекер Открытый торрент трекер - RUS-MEDIA.ORG

Проголосуй Открытый торрент трекер - RUS-MEDIA.ORG



реклама партнёра


Вернуться к началу
 Профиль Отправить личное сообщение  
 
   Похожие торренты   Автор   Торрент   Размер 
В этой теме нет новых непрочитанных сообщений. Городские легенды 2: Последний отрезок / Urban Legends: Final Cut [ужасы, триллер, детектив, 2000] WEBRip 1080p, Dvo+Sub

salma3

43 | 14

6.44 ГБ

В этой теме нет новых непрочитанных сообщений. Городские легенды 3: Кровавая Мэри / Urban Legends: Bloody Mary [Триллер, Ужасы, 2005] DVDRip-AVC, Mvo

salma3

72 | 10

2.17 ГБ

В этой теме нет новых непрочитанных сообщений. Городские легенды 2: Последний отрезок / Urban legends 2: Final Cut [Ужасы, триллер, слэшер, 2000] WEB-DL 720p, Dvo+Sub

salma3

15 | 3

3.19 ГБ

В этой теме нет новых непрочитанных сообщений. Городские легенды 3: Кровавая Мэри / Urban Legends: Bloody Mary [ужасы, триллер, 2005] WEBRip 1080p, Dvo+Sub

salma3

37 | 13

9.79 ГБ

В этой теме нет новых непрочитанных сообщений. Становление легенды / Rise of the Legend / Huang Feihong Zhi Yingxiong You Meng (Сянь-ян Чоу / Hsien-yang Chou) [2014г., Гонконг, боевик, драма, боевые искусства, BDRip] DVO

Alfredovich

287 | 47

1.47 ГБ

В этой теме нет новых непрочитанных сообщений. Становление легенды / Huang feihong zhi yingxiong you meng / Rise of the Legend (Сянь-ян Чоу) [Боевик, Драма, Биография, Боевые искусства, 2014] BDRip 1080p [3D-Video | Green Tea]

Dracon

69 | 8

19.85 ГБ

В этой теме нет новых непрочитанных сообщений. Психо / Psycho [ужасы, триллер, детектив, 1998] BDRip 1080p, Mvo

salma3

16 | 8

7.12 ГБ


Начать новую тему Ответить на тему  [ 1 сообщение ] 




Для Мосгорсуда, Роскомнадзора и рекламодателей:: mosgorsud-torrent[собачка]yandex.ru