Торрент файл
скачать торрент магнет ссылка Добавлен: 03 сен 2017, 11:38
Размер: 3.05 ГБ
Сидеров: 7
Личеров: 0
Статус: (salma3)
Автор

СообщениеДобавлено: 03 сен 2017, 11:38 

Не в сети
Супермодератор
Аватара пользователя
Дата регистрации:
15 фев 2012, 16:44
Возраст: 29
Спасибо: 7328 / 2147
Сообщения: 73276
Год выпуска: 1998
Жанр: Драма, криминал
Режиссер: Хайп Уильямс

В ролях: Хассан Джонсон, Тэрал Хикс, Оливер Пауэр Грант, Луи Ранкин, Стэн Дрейтон, Джеймс Паррис, Метод Мэн, Курт Лодер, Бен Чевис, Тайрин Тернер, Джей Блэк, Шон Моррисон, Фрэнк Винсент,

Описание:
Недавние сорванцы и отвязные хулиганы со временем превратились в самых крутых парней района. Они разучились доверять друг другу. Бандитские связи и шальные деньги развратили их души, сделали каменными сердца. Теперь эти парни живут по особым правилам и соблюдают только свои законы. И когда им, объятым пламенем уличной войны, придется выбирать между жизнью и смертью, чистой совестью и предательством — каждый из них покажет свое истинное лицо.



Страна: США, Ямайка
Продолжительность: 01:35:48
Перевод: Профессиональный двухголосый, авторский одноголосый
Субтитры: английские (full)

Качество: BDRip-AVC
Формат: MKV
Видео: AVC, 1024x576 (16:9), 23.976 fps, 3 464 Kbps (0.245 bit/pixel)
Аудио №1: русский / AC3 / 2.0 / 48 kHz / 192 kbps / Профессиональный двухголосый (ТВ 1000)
Аудио №2: русский / AC3 / 5.1 / 48 kHz / 448 kbps / Авторский одноголосый (Ю. Сербин)
Аудио №3: английский / AC3 / 5.1 / 48 kHz / 448 kbps / Original
Навигация по главам: есть

x264 [info]: frame I:859 Avg QP:16.23 size: 77441
x264 [info]: frame P:28604 Avg QP:19.36 size: 31448
x264 [info]: frame B:108370 Avg QP:21.03 size: 14047

Общее
Уникальный идентификатор : 247148600227066031188933850840401777497 (0xB9EF16C7FCD7D59992672DCC5C291359)
Полное имя : D:downloadBelly.1998.BDRip-AVC by schultz R.G.Resident.mkv
Формат : Matroska
Версия формата : Version 4 / Version 2
Размер файла : 3,05 Гбайт
Продолжительность : 1 ч. 35 м.
Общий поток : 4553 Кбит/сек
Дата кодирования : UTC 2017-09-03 07:07:42
Программа кодирования : mkvmerge v8.9.0 ('Father Daughter') 64bit
Библиотека кодирования : libebml v1.3.3 + libmatroska v1.4.4

Видео
Идентификатор : 1
Формат : AVC
Формат/Информация : Advanced Video Codec
Профиль формата : High@L4.1
Параметр CABAC формата : Да
Параметр ReFrames формата : 11 кадров
Идентификатор кодека : V_MPEG4/ISO/AVC
Продолжительность : 1 ч. 35 м.
Битрейт : 3464 Кбит/сек
Ширина : 1024 пикселя
Высота : 576 пикселей
Соотношение сторон : 16:9
Режим частоты кадров : Постоянный
Частота кадров : 23,976 (23976/1000) кадра/сек
Цветовое пространство : YUV
Субдискретизация насыщенности : 4:2:0
Битовая глубина : 8 бит
Тип развёртки : Прогрессивная
Бит/(Пиксели*Кадры) : 0.245
Размер потока : 2,32 Гбайт (76%)
Библиотека кодирования : x264 core 146 r2538 121396c
Настройки программы : cabac=1 / ref=11 / deblock=1:-3:-3 / analyse=0x3:0x113 / me=umh / subme=11 / psy=1 / psy_rd=1.00:0.15 / mixed_ref=1 / me_range=48 / chroma_me=1 / trellis=2 / 8x8dct=1 / cqm=0 / deadzone=21,11 / fast_pskip=0 / chroma_qp_offset=-3 / threads=12 / lookahead_threads=3 / sliced_threads=0 / nr=0 / decimate=0 / interlaced=0 / bluray_compat=0 / constrained_intra=0 / bframes=12 / b_pyramid=2 / b_adapt=2 / b_bias=0 / direct=3 / weightb=1 / open_gop=0 / weightp=2 / keyint=240 / keyint_min=23 / scenecut=40 / intra_refresh=0 / rc_lookahead=40 / rc=2pass / mbtree=0 / bitrate=3464 / ratetol=1.0 / qcomp=0.60 / qpmin=0 / qpmax=69 / qpstep=4 / cplxblur=20.0 / qblur=0.5 / vbv_maxrate=50000 / vbv_bufsize=62500 / nal_hrd=none / filler=0 / ip_ratio=1.40 / pb_ratio=1.30 / aq=1:1.00
Язык : English
Default : Да
Forced : Нет
Цветовой диапазон : Limited
Основные цвета : BT.709
Характеристики трансфера : BT.709
Коэффициенты матрицы : BT.709

Аудио #1
Идентификатор : 2
Формат : AC-3
Формат/Информация : Audio Coding 3
Расширение режима : CM (complete main)
Параметр Endianness формата : Big
Идентификатор кодека : A_AC3
Продолжительность : 1 ч. 35 м.
Вид битрейта : Постоянный
Битрейт : 192 Кбит/сек
Каналы : 2 канала
Расположение каналов : Front: L R
Частота : 48,0 КГц
Частота кадров : 31,250 кадров/сек (1536 spf)
Метод сжатия : С потерями
Размер потока : 132 Мбайт (4%)
Заголовок : Профессиональный двухголосый (ТВ 1000)
Язык : Russian
Default : Да
Forced : Нет

Аудио #2
Идентификатор : 3
Формат : AC-3
Формат/Информация : Audio Coding 3
Расширение режима : CM (complete main)
Параметр Endianness формата : Big
Идентификатор кодека : A_AC3
Продолжительность : 1 ч. 35 м.
Вид битрейта : Постоянный
Битрейт : 448 Кбит/сек
Каналы : 6 каналов
Расположение каналов : Front: L C R, Side: L R, LFE
Частота : 48,0 КГц
Частота кадров : 31,250 кадров/сек (1536 spf)
Метод сжатия : С потерями
Размер потока : 307 Мбайт (10%)
Заголовок : Авторский одноголосый (Ю. Сербин)
Язык : Russian
Default : Нет
Forced : Нет

Аудио #3
Идентификатор : 4
Формат : AC-3
Формат/Информация : Audio Coding 3
Расширение режима : CM (complete main)
Параметр Endianness формата : Big
Идентификатор кодека : A_AC3
Продолжительность : 1 ч. 35 м.
Вид битрейта : Постоянный
Битрейт : 448 Кбит/сек
Каналы : 6 каналов
Расположение каналов : Front: L C R, Side: L R, LFE
Частота : 48,0 КГц
Частота кадров : 31,250 кадров/сек (1536 spf)
Метод сжатия : С потерями
Размер потока : 307 Мбайт (10%)
Заголовок : Original
Язык : English
Default : Нет
Forced : Нет

Текст
Идентификатор : 5
Формат : UTF-8
Идентификатор кодека : S_TEXT/UTF8
Идентификатор кодека/Информация : UTF-8 Plain Text
Продолжительность : 1 ч. 31 м.
Битрейт : 39 бит/сек
Count of elements : 856
Размер потока : 26,4 Кбайт (0%)
Заголовок : full
Язык : English
Default : Нет
Forced : Нет

Меню
00:00:00.000 : en:Chapter 1
00:05:00.000 : en:Chapter 2
00:10:00.000 : en:Chapter 3
00:15:00.000 : en:Chapter 4
00:20:00.000 : en:Chapter 5
00:25:00.000 : en:Chapter 6
00:30:00.000 : en:Chapter 7
00:35:00.000 : en:Chapter 8
00:40:00.000 : en:Chapter 9
00:45:00.000 : en:Chapter 10
00:50:00.000 : en:Chapter 11
00:55:00.000 : en:Chapter 12
01:00:00.000 : en:Chapter 13
01:05:00.000 : en:Chapter 14
01:10:00.000 : en:Chapter 15
01:15:00.000 : en:Chapter 16
01:20:00.000 : en:Chapter 17
01:25:00.000 : en:Chapter 18
01:30:00.000 : en:Chapter 19
01:35:00.000 : en:Chapter 20


Релиз от:


_________________
Проголосуй за трекер Открытый торрент трекер - RUS-MEDIA.ORG

Проголосуй Открытый торрент трекер - RUS-MEDIA.ORG


Вернуться к началу
 Профиль Отправить личное сообщение  
 
   Похожие торренты   Автор   Торрент   Размер 
В этой теме нет новых непрочитанных сообщений. Живот / Belly [Драма, криминал, 1998] BDRip 720р, Dvo

salma3

21 | 5

5.78 ГБ

В этой теме нет новых непрочитанных сообщений. Застенчивый пистолет / Gunshy [Драма, криминал, 1998] BDRip 720, Dvo

salma3

16 | 5

4.35 ГБ

В этой теме нет новых непрочитанных сообщений. Преследование / Following [триллер, драма, криминал, 1998] BDRip 720p, Avo+Sub

salma3

0 | 0

7.62 ГБ

В этой теме нет новых непрочитанных сообщений. Падший / Fallen [Триллер, Драма, Криминал, 1998] BDRip 720p, Dub

salma3

0 | 0

8.14 ГБ

В этой теме нет новых непрочитанных сообщений. Черный пес / Black Dog [боевик, триллер, драма, криминал, 1998] BDRip, Mvo

salma3

84 | 10

1.46 ГБ

В этой теме нет новых непрочитанных сообщений. Чёрный пёс / Black Dog [боевик, триллер, драма, криминал, 1998] BDRip 720p, Mvo+Dvo+Avo+Sub

salma3

40 | 31

5.7 ГБ

В этой теме нет новых непрочитанных сообщений. Осада / The Siege [боевик, триллер, драма, криминал, 1998] BDRip 720p, Dub

salma3

15 | 5

7.93 ГБ


Начать новую тему Ответить на тему  [ 1 сообщение ] 




Для Мосгорсуда, Роскомнадзора и рекламодателей:: mosgorsud-torrent[собачка]yandex.ru
cron