Торрент файл
скачать торрент магнет ссылка Добавлен: 28 авг 2017, 15:00
Размер: 745.76 МБ
Сидеров: 63
Личеров: 13
Статус: (salma3)
Автор

СообщениеДобавлено: 28 авг 2017, 15:00 

Не в сети
Супермодератор
Аватара пользователя
Дата регистрации:
15 фев 2012, 16:44
Возраст: 28
Спасибо: 6659 / 2146
Сообщения: 46020
Год выхода: 1991
Жанр: Комедия, пародия, боевик
Режиссер: Джим Абрахамс

В ролях: Чарли Шин, Кэри Элвис, Валерия Голино, Ллойд Бриджес, Кевин Данн, Джон Крайер, Уильям О`Лири, Кристи Суонсон, Ефрем Цимбалист мл., Билл Ирвин, Бренда Бэкки, Мигель Феррер, Ричард Кренна, Райан Стайлз, Джерри Халева, Майкл Кольяр, Роуэн Аткинсон, Дэвид Вол, Митч Райан

О фильме :
Анекдотичные ситуации на военной базе, где герои, сами того не замечая, пародируют самые известные фильмы, заставят вас безудержно хохотать на протяжении всего фильма. Их горячие головы производят такое количество несуразных идей, что находиться рядом с ними просто опасно для здоровья.



Страна: США
Продолжительность: 01:24:47
Перевод: Профессиональный (двухголосый, закадровый) НТВ+

Файл
Формат: MKV
Качество: BDRip-AVC
Видео: MPEG-4 AVC, 736x400, ~ 1157 Кбит/с
Аудио: AAC-LC, 2 ch, ~72 Кбит/с
Субтитры: Русские, английские, украинские
Чаптеры (Главы): Есть

Общее
Уникальный идентификатор : 181301383494255790936415643668391880279 (0x886560580481E2DDBFD3F3F2AE036657)
Полное имя : D:MOVIESHot Shots.1991.ExKinoRay.mkv
Формат : Matroska
Версия формата : Version 4 / Version 2
Размер файла : 746 Мбайт
Продолжительность : 1 ч. 24 м.
Общий поток : 1230 Кбит/сек
Название фильма : Respector
Дата кодирования : UTC 2017-08-28 05:52:20
Программа кодирования : mkvmerge v15.0.0 ('Duel with the Devil') 64-bit
Библиотека кодирования : libebml v1.3.5 + libmatroska v1.4.5

Видео
Идентификатор : 1
Формат : AVC
Формат/Информация : Advanced Video Codec
Профиль формата : High@L4.1
Параметр CABAC формата : Да
Параметр RefFrames формата : 9 кадров
Идентификатор кодека : V_MPEG4/ISO/AVC
Продолжительность : 1 ч. 24 м.
Битрейт : 1157 Кбит/сек
Ширина : 736 пикселей
Высота : 400 пикселей
Соотношение сторон : 1,85:1
Режим частоты кадров : Постоянный
Частота кадров : 23,976 (24000/1001) кадра/сек
Цветовое пространство : YUV
Субдискретизация насыщенности : 4:2:0
Битовая глубина : 8 бит
Тип развёртки : Прогрессивная
Бит/(Пиксели*Кадры) : 0.164
Размер потока : 701 Мбайт (94%)
Библиотека кодирования : x264 core 152 r2851kMod ba24899
Настройки программы : cabac=1 / ref=9 / deblock=1:-2:-2 / analyse=0x3:0x113 / me=umh / subme=9 / psy=1 / fade_compensate=0.00 / psy_rd=1.00:0.20 / mixed_ref=1 / me_range=32 / chroma_me=1 / trellis=1 / 8x8dct=1 / cqm=0 / deadzone=21,11 / fast_pskip=1 / chroma_qp_offset=-3 / threads=6 / lookahead_threads=1 / sliced_threads=0 / nr=0 / decimate=0 / interlaced=0 / bluray_compat=0 / constrained_intra=0 / bframes=9 / b_pyramid=2 / b_adapt=2 / b_bias=0 / direct=3 / weightb=1 / open_gop=0 / weightp=2 / keyint=240 / keyint_min=23 / scenecut=40 / intra_refresh=0 / rc_lookahead=40 / rc=2pass / mbtree=1 / bitrate=1157 / ratetol=1.0 / qcomp=0.60 / qpmin=0 / qpmax=69 / qpstep=4 / cplxblur=20.0 / qblur=0.5 / vbv_maxrate=50000 / vbv_bufsize=62500 / nal_hrd=none / filler=0 / ip_ratio=1.40 / aq=3:1.00
Default : Да
Forced : Нет

Аудио
Идентификатор : 2
Формат : AAC
Формат/Информация : Advanced Audio Codec
Профиль формата : LC
Идентификатор кодека : A_AAC
Продолжительность : 1 ч. 24 м.
Битрейт : 72,0 Кбит/сек
Каналы : 2 канала
Расположение каналов : Front: L R
Частота : 48,0 КГц
Частота кадров : 46,875 кадров/сек (1024 SPF)
Метод сжатия : С потерями
Задержка видео : 9 мс.
Размер потока : 43,7 Мбайт (6%)
Язык : Russian
Default : Да
Forced : Нет

Текст #1
Идентификатор : 3
Формат : UTF-8
Идентификатор кодека : S_TEXT/UTF8
Идентификатор кодека/Информация : UTF-8 Plain Text
Продолжительность : 1 ч. 19 м.
Битрейт : 69 бит/сек
ElementCount : 895
Размер потока : 40,2 Кбайт (0%)
Язык : Russian
Default : Нет
Forced : Нет

Текст #2
Идентификатор : 4
Формат : UTF-8
Идентификатор кодека : S_TEXT/UTF8
Идентификатор кодека/Информация : UTF-8 Plain Text
Продолжительность : 1 ч. 19 м.
Битрейт : 69 бит/сек
ElementCount : 895
Размер потока : 40,3 Кбайт (0%)
Язык : Ukrainian
Default : Нет
Forced : Нет

Текст #3
Идентификатор : 5
Формат : UTF-8
Идентификатор кодека : S_TEXT/UTF8
Идентификатор кодека/Информация : UTF-8 Plain Text
Продолжительность : 1 ч. 19 м.
Битрейт : 63 бит/сек
ElementCount : 1061
Размер потока : 37,0 Кбайт (0%)
Язык : English
Default : Нет
Forced : Нет

Меню
00:00:00.000 : :Chapter 01
00:02:22.267 : :Chapter 03
00:04:50.331 : :Chapter 05
00:08:06.944 : :Chapter 07
00:10:09.650 : :Chapter 09
00:11:13.214 : :Chapter 11
00:18:33.028 : :Chapter 13
00:21:34.584 : :Chapter 15
00:26:19.744 : :Chapter 17
00:29:02.449 : :Chapter 19
00:35:13.569 : :Chapter 21
00:37:50.518 : :Chapter 23
00:46:03.635 : :Chapter 25
00:48:37.080 : :Chapter 27
00:53:36.338 : :Chapter 29
00:55:57.729 : :Chapter 31
00:58:52.111 : :Chapter 33
01:04:12.473 : :Chapter 35
01:06:26.941 : :Chapter 37
01:08:35.277 : :Chapter 39
01:11:46.510 : :Chapter 41
01:16:46.768 : :Chapter 43
01:18:45.137 : :Chapter 45
01:19:54.956 : :Chapter 47
01:24:46.873 : :Chapter 48



Релиз от:


_________________
Проголосуй за трекер Открытый торрент трекер - RUS-MEDIA.ORG

Проголосуй Открытый торрент трекер - RUS-MEDIA.ORG



реклама партнёра


Вернуться к началу
 Профиль Отправить личное сообщение  
 
   Похожие торренты   Автор   Торрент   Размер 
В этой теме нет новых непрочитанных сообщений. Горячие головы 2 / Hot Shots! Part Deux [комедия, боевик, военный, 1993] BDRip-AVC, Mvo

salma3

144 | 13

745.32 МБ

В этой теме нет новых непрочитанных сообщений. Напролом / The Hard Way [боевик, комедия, криминал, 1991] BDRip 720p, Dub+Mvo+Avo+Sub

salma3

9 | 2

5.52 ГБ

В этой теме нет новых непрочитанных сообщений. Напролом / The Hard Way [боевик, комедия, криминал, 1991] BDRip 1080p, Dub+Mvo+Avo+Sub

salma3

19 | 10

12.17 ГБ

В этой теме нет новых непрочитанных сообщений. Гайвер / Guyver [Фантастика, боевик, комедия, 1991] BDRip 720p, 4Avo+Sub

salma3

82 | 3

4.89 ГБ

В этой теме нет новых непрочитанных сообщений. Последний бойскаут / The Last Boy Scout [Боевик, триллер, комедия, 1991] BDRip 720p, 3Avo+Sub

salma3

55 | 9

7.38 ГБ

В этой теме нет новых непрочитанных сообщений. Разборки в Маленьком Токио / Showdown In Little Tokyo [Боевик, триллер, комедия, 1991] BDRip-AVC, Dub

salma3

82 | 15

745.96 МБ

В этой теме нет новых непрочитанных сообщений. Коммандо из пригорода / Suburban Commando [фантастика, боевик, комедия, 1991] BDRip 720p, Mvo+Avo

salma3

15 | 8

5.26 ГБ


Начать новую тему Ответить на тему  [ 1 сообщение ] 




Для Мосгорсуда, Роскомнадзора и рекламодателей:: mosgorsud-torrent[собачка]yandex.ru