Торрент файл
скачать торрент магнет ссылка Добавлен: 27 авг 2017, 21:20
Размер: 745.08 МБ
Сидеров: 24
Личеров: 5
Статус: (salma3)
Автор

СообщениеДобавлено: 27 авг 2017, 21:20 

Не в сети
Супермодератор
Аватара пользователя
Дата регистрации:
15 фев 2012, 16:44
Возраст: 28
Спасибо: 7290 / 2147
Сообщения: 70489
Год выхода: 1999
Жанр: Мелодрама, комедия
Режиссер: Роберт Айскоув

В ролях: Фредди Принц мл., Рэйчел Ли Кук, Мэттью Лиллард, Пол Уокер, Джоди Лин О’Кифи, Кевин Поллак, Анна Пэкуин, Киран Калкин, Элден Хенсон, Ашер

О фильме:
Зак Сайлер - самый популярный из старшеклассников, предмет обожания учителей и воздыхания девчонок. Он староста класса, капитан футбольной команды и один из первых по успеваемости. Бесспорно, Зак станет королем выпускного бала, но... этого везунчика предательски подводит королева! Зак и Тэйлор считались лучшей парой в школе, но Тэйлор, особа заносчивая и с огромным самомнением, бросает Зака за шесть недель до бала. Неудачи на любовном фронте могли сломить кого угодно, только не Зака Сайлера. Он берется «сделать» себе новую королеву! Зак заключает с друзьями пари, что за шесть недель превратит в писаную красавицу самую неприглядную девчонку в классе. Выбор падает на Ленни, очкастую «ботаничку» с хорошей фигурой, спрятанной под мешковатой одеждой. Эта девушка - очень запущенный экземпляр! Пигмалион берется за работу и... конечно, влюбляется в свою Галатею.



Страна: США
Продолжительность: 01:35:40
Перевод: Профессиональный (двухголосый, закадровый) - R5

Файл
Кодек: XviD
Качество: HDRip
Видео: 624x352 (1.77:1), 23.976 fps, XviD build 73 ~951 kbps avg, 0.18 bit/pixel
Звук: 48 kHz, MPEG Layer 3, 2 ch, ~128.00 kbps avg

Семпл

General
Complete name : D:Изготовление рипаEto.Vse.Ona.( R5 ).HDRip.by shkiper.avi
Format : AVI
Format/Info : Audio Video Interleave
File size : 745 MiB
Duration : 1 h 35 min
Overall bit rate : 1 089 kb/s
Writing application : VirtualDubMod 1.5.10.3 | http://www.virtualdub-fr.org || (build 2550/release)
Writing library : VirtualDubMod build 2550/release

Video
ID : 0
Format : MPEG-4 Visual
Format profile : Advanced Simple@L5
Format settings, BVOP : 1
Format settings, QPel : No
Format settings, GMC : No warppoints
Format settings, Matrix : Custom
Codec ID : XVID
Codec ID/Hint : XviD
Duration : 1 h 35 min
Bit rate : 952 kb/s
Width : 624 pixels
Height : 352 pixels
Display aspect ratio : 16:9
Frame rate : 23.976 (24000/1001) FPS
Color space : YUV
Chroma subsampling : 4:2:0
Bit depth : 8 bits
Scan type : Progressive
Compression mode : Lossy
Bits/(Pixel*Frame) : 0.181
Stream size : 651 MiB (87%)
Writing library : XviD 73

Audio
ID : 1
Format : MPEG Audio
Format version : Version 1
Format profile : Layer 3
Codec ID : 55
Codec ID/Hint : MP3
Duration : 1 h 35 min
Bit rate mode : Constant
Bit rate : 128 kb/s
Channel(s) : 2 channels
Sampling rate : 48.0 kHz
Compression mode : Lossy
Stream size : 87.6 MiB (12%)
Alignment : Aligned on interleaves
Interleave, duration : 42 ms (1.00 video frame)
Interleave, preload duratio : 504 ms
Writing library : LAME3.99r
Encoding settings : -m s -V 4 -q 2 -lowpass 17 -b 128


Релиз от:


_________________
Проголосуй за трекер Открытый торрент трекер - RUS-MEDIA.ORG

Проголосуй Открытый торрент трекер - RUS-MEDIA.ORG


Вернуться к началу
 Профиль Отправить личное сообщение  
 
   Похожие торренты   Автор   Торрент   Размер 
В этой теме нет новых непрочитанных сообщений. Управляя полетами / Pushing Tin [Комедия, драма, мелодрама, 1999] HDRip-AVC, Mvo

salma3

101 | 28

2.66 ГБ

В этой теме нет новых непрочитанных сообщений. Ноттинг Хилл / Notting Hill [драма, комедия, мелодрама, 1999] HDRip, Dub

salma3

0 | 0

2.05 ГБ

В этой теме нет новых непрочитанных сообщений. С первого взгляда / At First Sight [Мелодрама, драма, 1999] HDRip, Dub

salma3

20 | 8

1.38 ГБ

В этой теме нет новых непрочитанных сообщений. С первого взгляда / At First Sight [драма, мелодрама, 1999] HDRip, Dvo [НТВ+]

salma3

83 | 33

1.45 ГБ

В этой теме нет новых непрочитанных сообщений. Класс 1999 / Class of 1999 [ужасы, фантастика, боевик, 1990] HDRip, Dvo

salma3

94 | 15

1.37 ГБ

В этой теме нет новых непрочитанных сообщений. Это всё она / She's All That [мелодрама, комедия, 1999] BDRip 720p, Mvo

salma3

8 | 2

5.38 ГБ

В этой теме нет новых непрочитанных сообщений. Это всё она / She's All That [мелодрама, комедия, 1999] BDRip 1080p, Mvo

salma3

0 | 0

8.05 ГБ


Начать новую тему Ответить на тему  [ 1 сообщение ] 




Для Мосгорсуда, Роскомнадзора и рекламодателей:: mosgorsud-torrent[собачка]yandex.ru
cron