Торрент файл
скачать торрент магнет ссылка Добавлен: 26 авг 2017, 13:46
Размер: 1.45 ГБ
Сидеров: 12
Личеров: 0
Статус: (salma3)
Автор

СообщениеДобавлено: 26 авг 2017, 13:46 

Не в сети
Супермодератор
Аватара пользователя
Дата регистрации:
15 фев 2012, 16:44
Возраст: 28
Спасибо: 6642 / 2146
Сообщения: 45622
Год выхода: 1980
Жанр: комедия, приключения
Режиссер: Роналд Ним

В ролях: Уолтер Мэттау, Гленда Джексон, Сэм Уотерстон, Нед Битти, Херберт Лом, Дэвид Мэттоу, Джордж Бейкер, Айвор Робертс, Люси Сароян, Северн Дарден

О фильме:
Своевольный шпион Кендиг кажется новому молодому начальнику слишком опасным. Однако, пригрозив перевести его на «более спокойную» должность, шеф своими руками поджигает фитиль. Кендигу приходит на ум игра, которая взбаламутит все разведки мира. С помощью своей давней подруги он готовит к выходу книгу…



Страна: США
Продолжительность: 01:45:18
Перевод: Авторский (Владимир Сонькин)

Файл
Кодек: x264
Качество: HDRip-AVC
Видео: High@L4.1, ~1778 Кбит/с, 994x410, 23.976 кадр/с
Аудио: AC3, 2 ch, 192 Кбит/с
Субтитры: Английские

General
Unique ID : 96255446643134796655080243739881754189 (0x486A1FEC577983363DC60E999B75CE4D)
Complete name : F:FILMSИгра в классики.(1980).HDRIP-AVC.[-=DoMiNo=-].mkv
Format : Matroska
Format version : Version 4 / Version 2
File size : 1.45 GiB
Duration : 1 h 45 min
Overall bit rate : 1 974 kb/s
Movie name : Игра в классики
Writing application : XviD4PSP 7.0.401 DAILY
Writing library : Lavf57.71.100
ErrorDetectionType : Per level 1
Attachments : poster.jpg
ACTORS : Уолтер Мэттау, Гленда Джексон, Сэм Уотерстон, Нед Битти, Херберт Лом, Дэвид Мэттоу, Джордж Бейкер, Айвор Робертс, Люси Сароян, Северн Дарден, Джордж Правда, Жаклин Хайд, Майк Гвилим, Терри Бивер, Рэй Чарлсон, Кристофер Дрисколл, Майкл Кронин, Рой Сэмпсон, Дуглас Дирксон, Энн Хейни, Шан Уилсон, Рендал Патрик, Джо Дорси, Кэндис Ховард, Susan McShayne, Иоланда Кинг, Энтони Каррик, Осман Рагхеб, Роланд Фрохлих, Джереми Янг, Сэлли Несбитт, Сузан Энгель, Джоэнна МакКаллум, Лаура Уайт, Ларри Ларсон, Seab Worthy, Дэнни Ковингтон, Ричард Мур, Филип Восс, Дебра Хук, The Silversmith Band, Аллан Катбертсон
COUNTRY : США
DATE : 1980
DIRECTOR : Роналд Ним
ENCODING_INFO : MATROSKA,WEBM > MKV Произвольный / H264 > X264 VBR-2P 1778kbps Произвольный / AC3 > COPY Безопасное
GENRE : комедия, приключения
HD_VIDEO : 1
IMDB_RATING : 7.20
ITUNEXTC : mpaa|R|400|
Language : und
MEDIA_TYPE : 9
ORIGINAL_TITLE : Hopscotch
PRODUCER : Эди Ландау, Джонатан Бернштейн, Брайан Гарфилд, Эли А. Ландау, Отто Плашкес
RATING : 6.894
WRITER : Брайан Гарфилд, Брайан Форбс

Video
ID : 1
Format : AVC
Format/Info : Advanced Video Codec
Format profile : High@L4.1
Format settings, CABAC : Yes
Format settings, RefFrames : 11 frames
Codec ID : V_MPEG4/ISO/AVC
Duration : 1 h 45 min
Bit rate : 1 778 kb/s
Width : 994 pixels
Height : 410 pixels
Display aspect ratio : 2.40:1
Frame rate mode : Constant
Frame rate : 23.976 (24000/1001) FPS
Color space : YUV
Chroma subsampling : 4:2:0
Bit depth : 8 bits
Scan type : Progressive
Bits/(Pixel*Frame) : 0.182
Stream size : 1.28 GiB (88%)
Title : RIP_BY_-=DoMiNo=-
Writing library : x264 core 152 r2851M ba24899
Encoding settings : cabac=1 / ref=11 / deblock=1:-3:-3 / analyse=0x3:0x133 / me=umh / subme=10 / psy=1 / psy_rd=1.00:0.05 / mixed_ref=1 / me_range=32 / chroma_me=1 / trellis=2 / 8x8dct=1 / cqm=0 / deadzone=21,11 / fast_pskip=1 / chroma_qp_offset=-3 / threads=6 / lookahead_threads=1 / sliced_threads=0 / nr=0 / decimate=1 / interlaced=0 / bluray_compat=0 / constrained_intra=0 / bframes=10 / b_pyramid=2 / b_adapt=2 / b_bias=0 / direct=3 / weightb=1 / open_gop=0 / weightp=2 / keyint=230 / keyint_min=23 / scenecut=40 / intra_refresh=0 / rc_lookahead=60 / rc=2pass / mbtree=1 / bitrate=1778 / ratetol=1.0 / qcomp=0.65 / qpmin=0 / qpmax=69 / qpstep=4 / cplxblur=20.0 / qblur=0.5 / ip_ratio=1.40 / aq=1:1.00
Default : Yes
Forced : No
Color range : Limited
Color primaries : BT.709
Transfer characteristics : BT.709
Matrix coefficients : BT.709

Audio
ID : 2
Format : AC-3
Format/Info : Audio Coding 3
Format settings, Endianness : Big
Codec ID : A_AC3
Duration : 1 h 45 min
Bit rate mode : Constant
Bit rate : 192 kb/s
Channel(s) : 2 channels
Channel positions : Front: L R
Sampling rate : 48.0 kHz
Frame rate : 31.250 FPS (1536 SPF)
Bit depth : 16 bits
Compression mode : Lossy
Stream size : 145 MiB (10%)
Title : AVO - Сонькин
Language : Russian
Service kind : Complete Main
Default : Yes
Forced : No

Text #1
ID : 3
Format : UTF-8
Codec ID : S_TEXT/UTF8
Codec ID/Info : UTF-8 Plain Text
Duration : 1 h 42 min
Title : SDH
Language : English
Default : Yes
Forced : No

Text #2
ID : 4
Format : UTF-8
Codec ID : S_TEXT/UTF8
Codec ID/Info : UTF-8 Plain Text
Duration : 1 h 42 min
Language : English
Default : No
Forced : No

Menu
00:00:00.000 : :Oktoberfest
00:04:56.379 : :Washington: Desk Job
00:11:41.326 : :Salzburg: Isobel
00:20:29.687 : :Yaskov's Offer
00:27:52.087 : :Marseille: The Game
00:37:45.597 : :The Tenant
00:48:03.130 : :Plenty of Firepower
00:58:58.744 : :Bermuda: A Lighter Touch
01:05:34.889 : :London: Quid Pro Quo
01:12:18.376 : :"By the Short Hairs"
01:23:52.861 : :"Game's Over"
01:29:22.315 : :Beachy Head
01:40:02.288 : :Hopscotch


_________________
Проголосуй за трекер Открытый торрент трекер - RUS-MEDIA.ORG

Проголосуй Открытый торрент трекер - RUS-MEDIA.ORG



реклама партнёра


Вернуться к началу
 Профиль Отправить личное сообщение  
 
   Похожие торренты   Автор   Торрент   Размер 
В этой теме нет новых непрочитанных сообщений. Игра в классики / Hopscotch [комедия, приключения, 1980] HDRip, Avo

salma3

19 | 0

1.45 ГБ

В этой теме нет новых непрочитанных сообщений. Игра в классики / Hopscotch [комедия, приключения, 1980] BDRip 720p, Avo

salma3

20 | 2

7.31 ГБ

В этой теме нет новых непрочитанных сообщений. Игра в четыре руки / Le Guignolo [Боевик, комедия, 1980] BDRemux 1080p, Dub

salma3

12 | 6

20.62 ГБ

В этой теме нет новых непрочитанных сообщений. Молодой мастер / Shi di chu ma [боевик, комедия, приключения, 1980] HDRip, Mvo

salma3

21 | 4

1.46 ГБ

В этой теме нет новых непрочитанных сообщений. Большая игра / Big Game (Ялмари Хеландер) [Боевик, Приключения, 2014] HDRip, Dub [iTunes]

Dracon

289 | 10

1.37 ГБ

В этой теме нет новых непрочитанных сообщений. Встречи с привидениями / Gui da gui [Ужасы, фэнтези, боевик, комедия, 1980] HDRip, Avo

salma3

0 | 1

1.46 ГБ

В этой теме нет новых непрочитанных сообщений. Девятая конфигурация / The Ninth Configuration [триллер, драма, комедия, 1980] HDRip, Dvo

salma3

59 | 21

1.88 ГБ


Начать новую тему Ответить на тему  [ 1 сообщение ] 




Для Мосгорсуда, Роскомнадзора и рекламодателей:: mosgorsud-torrent[собачка]yandex.ru