Торрент файл
скачать торрент магнет ссылка Добавлен: 26 сен 2017, 21:17
Размер: 1.46 ГБ
Сидеров: 0
Личеров: 0
Статус: (salma3)
Автор

СообщениеДобавлено: 26 авг 2017, 11:23 

В сети
Супермодератор
Аватара пользователя
Дата регистрации:
15 фев 2012, 16:44
Возраст: 28
Спасибо: 6642 / 2146
Сообщения: 45748
Год выхода: 2017
Жанр: ужасы, фэнтези, боевик
Режиссер: Адам Вингард

В ролях: Маргарет Куэлли, Лейкит Стэнфилд, Уиллем Дефо, Нат Вулф, Шей Уигэм, Маси Ока, Майкл Шамус Уайлз, Пол МакДжиллион, Олена Медвид, Лия Лам

О фильме:
Способный студент Лайт находит загадочную тетрадь смерти, которая может убить любого, чье имя в нее вписать. Парень решает начать миссию по очистке улиц от преступников. Вскоре студент-линчеватель обнаруживает, что его преследует известный профайлер ФБР, скрывающийся под псевдонимом L.



Страна: США
Продолжительность: 01:40:16
Перевод: Перевод: Профессиональный многоголосый закадровый [студия Good People]

Файл
Качество: WEBRip
Видео: ~ 1685 kbps, 688x288, 23.976 fps
Аудио Rus: AC3, 384 kb/s (6 ch)


Общее
Полное имя : D:ЗагрузкиDeath.Note.2017.WEBRip.GoodPeople.avi
Формат : AVI
Формат/Информация : Audio Video Interleave
Размер файла : 1,46 Гбайт
Продолжительность : 1 ч. 40 м.
Общий поток : 2079 Кбит/сек
Программа кодирования : VirtualDubMod 1.5.10.3 | http://www.virtualdub-fr.org || (build 2550/release)
Библиотека кодирования : VirtualDubMod build 2550/release

Видео
Идентификатор : 0
Формат : MPEG-4 Visual
Профиль формата : Advanced Simple@L5
Параметр BVOP формата : 2
Параметр QPel формата : Нет
Параметр GMC формата : Без точки перехода
Параметр матрицы формата : Выборочная
Идентификатор кодека : XVID
Идентификатор кодека/Подсказка : XviD
Продолжительность : 1 ч. 40 м.
Битрейт : 1685 Кбит/сек
Ширина : 688 пикселей
Высота : 288 пикселей
Соотношение сторон : 2,40:1
Частота кадров : 23,976 (24000/1001) кадра/сек
Цветовое пространство : YUV
Субдискретизация насыщенности : 4:2:0
Битовая глубина : 8 бит
Тип развёртки : Прогрессивная
Метод сжатия : С потерями
Бит/(Пиксели*Кадры) : 0.355
Размер потока : 1,18 Гбайт (81%)
Библиотека кодирования : XviD 73

Аудио
Идентификатор : 1
Формат : AC-3
Формат/Информация : Audio Coding 3
Параметр Endianness формата : Big
Идентификатор кодека : 2000
Продолжительность : 1 ч. 40 м.
Вид битрейта : Постоянный
Битрейт : 384 Кбит/сек
Каналы : 6 каналов
Расположение каналов : Front: L C R, Side: L R, LFE
Частота : 48,0 КГц
Частота кадров : 31,250 кадров/сек (1536 spf)
Битовая глубина : 16 бит
Метод сжатия : С потерями
Размер потока : 275 Мбайт (18%)
Выравнивание : Разделение по промежуткам
Продолжительность промежутка : 42 мс. (1,00 видеокадр)
Время предзагрузки промежутка : 500 мс.


_________________
Проголосуй за трекер Открытый торрент трекер - RUS-MEDIA.ORG

Проголосуй Открытый торрент трекер - RUS-MEDIA.ORG



реклама партнёра


Вернуться к началу
 Профиль Отправить личное сообщение  
 
   Похожие торренты   Автор   Торрент   Размер 
В этой теме нет новых непрочитанных сообщений. Тетрадь смерти / Death Note [ужасы, фэнтези, боевик, 2017] WEBRip, Avo

salma3

907 | 114

1.56 ГБ

В этой теме нет новых непрочитанных сообщений. Тетрадь смерти / Death Note [ужасы, фэнтези, боевик, 2017] WEBRip 1080p, Mvo

salma3

0 | 0

9.86 ГБ

В этой теме нет новых непрочитанных сообщений. Тетрадь смерти: Зажги новый мир / Death Note: Light Up the New World [триллер, драма, криминал, 2016] WEBRip Mvo

salma3

1275 | 257

1.37 ГБ

В этой теме нет новых непрочитанных сообщений. Тетрадь смерти: Зажги новый мир / Death Note: Light Up the New World [триллер, драма, криминал, 2016] WEBRip 720p, Mvo

salma3

380 | 61

4.01 ГБ

В этой теме нет новых непрочитанных сообщений. Мёртвые как я: Жизнь после смерти / Dead Like Me: Life After Death [фэнтези, драма, комедия, 2009] WEBRip 1080p, Mvo

salma3

70 | 16

4.47 ГБ

В этой теме нет новых непрочитанных сообщений. Жажда смерти 5: Лик смерти / Death Wish V: The Face of Death [Боевик, Криминал, Триллер, 1994] BDRip-AVC, mvo

salma3

17 | 4

2.85 ГБ

В этой теме нет новых непрочитанных сообщений. Мумия / The Mummy [ужасы, фэнтези, боевик, 2017] WEBRip-HEVC, Dub [Line]

salma3

195 | 40

862.79 МБ


СообщениеДобавлено: 26 сен 2017, 21:18 

В сети
Супермодератор
Аватара пользователя
Дата регистрации:
15 фев 2012, 16:44
Возраст: 28
Спасибо: 6642 / 2146
Сообщения: 45748
salma3 писал(а):
Re: Тетрадь смерти / Death Note [ужасы, фэнтези, боевик, 2017] WEBRip, Mvo

_________________
Проголосуй за трекер Открытый торрент трекер - RUS-MEDIA.ORG

Проголосуй Открытый торрент трекер - RUS-MEDIA.ORG


Вернуться к началу
 Профиль Отправить личное сообщение  
 
Начать новую тему Ответить на тему  [ Сообщений: 2 ] 




Для Мосгорсуда, Роскомнадзора и рекламодателей:: mosgorsud-torrent[собачка]yandex.ru