Торрент файл
скачать торрент магнет ссылка Добавлен: 25 авг 2017, 23:16
Размер: 1.49 ГБ
Сидеров: 9
Личеров: 3
Статус: (salma3)
Автор

СообщениеДобавлено: 25 авг 2017, 23:16 

Не в сети
Супермодератор
Аватара пользователя
Дата регистрации:
15 фев 2012, 16:44
Возраст: 29
Спасибо: 7332 / 2147
Сообщения: 73912
Жанр: Боевик
Год выпуска: 1982
Режиссер: Уильям А. Грэм / William A. Graham

В ролях: Ларри Хэгмэн, Сьюзен Энспак, Джеймс Гэммон, Майкл С. Гвин, Хосе Чавес, Джек Данлэп, Джон Грэхэм, Арнольд Джефферс, Хэнк Хендрик, Роджер Ла Ру

Описание: Преследуемая гангстерами, Сьюзэн Энспак призывает на помощь своего старого любовника Ларри Хэгмана, бывшего пилота боевого вертолета. Прекрасные воздушные трюки доставят удовольствие всем любителям этого жанра. Фильм снят для телевидения. (М. Иванов)

Страна: США
Продолжительность: 01:32:15
Перевод: Одноголосый закадровый [ПОКА НЕ ОПОЗНАН]

Качество: DVDRip
Видео: XviD build 73, 640x480 (1.33:1), 23.976 fps, 1920 kbps avg, 0.26 bit/pixel
Аудио: AC3 Dolby Digital, 48000Hz, 2/0 (L,R) ch (mono), 192.00 kbps avg
Аудио 2: AC3 Dolby Digital, 48000Hz, 2/0 (L,R) ch, 192.00 kbps avg

Сэмпл:

Смертельная схватка - Deadly Encounter [by ale_x2008].avi
Format : AVI
Format/Info : Audio Video Interleave
File size : 1.49 GiB
Duration : 1 h 32 min
Overall bit rate : 2 319 kb/s
Movie name : Смертельная схватка - Deadly Encounter [by ale_x2008]
Director : by ale_x2008
Writing application : VirtualDubMod 1.5.10.2 (build 2540/release)
Copyright : Edich2
Comment : RuTracker.org
Video
ID : 0
Format : MPEG-4 Visual
Format profile : Advanced Simple@L5
Format settings, BVOP : 2
Format settings, QPel : No
Format settings, GMC : No warppoints
Format settings, Matrix : Custom
Codec ID : XVID
Codec ID/Hint : XviD
Duration : 1 h 32 min
Bit rate : 1 921 kb/s
Width : 640 pixels
Height : 480 pixels
Display aspect ratio : 4:3
Frame rate : 23.976 (24000/1001) FPS
Color space : YUV
Chroma subsampling : 4:2:0
Bit depth : 8 bits
Scan type : Progressive
Compression mode : Lossy
Bits/(Pixel*Frame) : 0.261
Stream size : 1.24 GiB (83%)
Writing library : XviD 73
Audio #1
ID : 1
Format : AC-3
Format/Info : Audio Coding 3
Format settings, Endianness : Big
Codec ID : 2000
Duration : 1 h 32 min
Bit rate mode : Constant
Bit rate : 192 kb/s
Channel(s) : 2 channels
Channel positions : Front: L R
Sampling rate : 48.0 kHz
Frame rate : 31.250 FPS (1536 spf)
Bit depth : 16 bits
Compression mode : Lossy
Stream size : 127 MiB (8%)
Alignment : Split accross interleaves
Interleave, duration : 42 ms (1.00 video frame)
Interleave, preload duratio : 500 ms
Service kind : Complete Main
Audio #2
ID : 2
Format : AC-3
Format/Info : Audio Coding 3
Format settings, Endianness : Big
Codec ID : 2000
Duration : 1 h 32 min
Bit rate mode : Constant
Bit rate : 192 kb/s
Channel(s) : 2 channels
Channel positions : Front: L R
Sampling rate : 48.0 kHz
Frame rate : 31.250 FPS (1536 spf)
Bit depth : 16 bits
Compression mode : Lossy
Stream size : 127 MiB (8%)
Alignment : Split accross interleaves
Interleave, duration : 42 ms (1.00 video frame)
Interleave, preload duratio : 500 ms
Service kind : Complete Main

Дорожка с VO синхронизирована и наложена ale_x2008 при помощи Sony Vegas и VirtualDubMod.
За оцифрованную с VHS дорожку благодарим - Raptorio Rio

Релиз


_________________
Проголосуй за трекер Открытый торрент трекер - RUS-MEDIA.ORG

Проголосуй Открытый торрент трекер - RUS-MEDIA.ORG


Вернуться к началу
 Профиль Отправить личное сообщение  
 
   Похожие торренты   Автор   Торрент   Размер 
В этой теме нет новых непрочитанных сообщений. Смертельная ставка / Deadly Bet [Боевик, 1992] DVDRip, Avo

salma3

0 | 0

1.47 ГБ

В этой теме нет новых непрочитанных сообщений. Смертельная ставка / Deadly Bet [Боевик, 1992] DVDRip, Mvo

salma3

0 | 0

1.45 ГБ

В этой теме нет новых непрочитанных сообщений. Смертельная Схватка / Taking the Heat [боевик, триллер, 1993] DVDRip, Dvo [ОРТ]

salma3

2 | 1

907.29 МБ

В этой теме нет новых непрочитанных сообщений. Смертельная добыча / Deadly Prey [боевик, триллер, 1987] DVDRip, Avo

salma3

0 | 0

1.45 ГБ

В этой теме нет новых непрочитанных сообщений. Полицейский-самурай 2: Смертельная месть / Samurai Cop 2: Deadly Vengeance [боевик, триллер, криминал, 2015] HDRip, Avo

salma3

55 | 4

1.27 ГБ

В этой теме нет новых непрочитанных сообщений. Полицейский-самурай 2: Смертельная месть / Samurai Cop 2: Deadly Vengeance [боевик, триллер, криминал, 2015] BDRip 720p, Avo

salma3

93 | 18

3.4 ГБ

В этой теме нет новых непрочитанных сообщений. Смертельное соседство / A Deadly View [Триллер, 2018] WEBRip, Dvo

salma3

0 | 0

1.14 ГБ


Начать новую тему Ответить на тему  [ 1 сообщение ] 




Для Мосгорсуда, Роскомнадзора и рекламодателей:: mosgorsud-torrent[собачка]yandex.ru
cron