Торрент файл
скачать торрент магнет ссылка Добавлен: 24 авг 2017, 20:54
Размер: 2.77 ГБ
Сидеров: 2
Личеров: 1
Статус: (salma3)
Автор

СообщениеДобавлено: 24 авг 2017, 20:54 

Не в сети
Супермодератор
Аватара пользователя
Дата регистрации:
15 фев 2012, 16:44
Возраст: 28
Спасибо: 7165 / 2147
Сообщения: 62265
Год выхода: 1999
Жанр: драма, мелодрама, комедия
Режиссер: Фил Джоану

В ролях: Стивен Дорфф / Stephen Dorff, Жюдит Годреш / Judith Godrèche, Келли Макдоналд / Kelly Macdonald, Лорен Холли / Lauren Holly, Джон Тени / Jon Tenney, Фрэнк Винсент / Frank Vincent, Пол Гилфойл / Paul Guilfoyle, Гектор Элизондо / Hector Elizondo, Брэй Пур / Bray Poor, Кэтрин Эрбе / Kathryn Erbe, ...

О фильме: Джейк — молодой и успешный режиссер музыкальных клипов. Ему выпадает редкий шанс — снять крупнобюджетный блокбастер на одной из Голливудских студий.
Приступив к съемкам, он случайно знакомится со Стеллой, в которую безоглядно влюбляется. Казалось бы, все в его жизни налаживается как нельзя лучше: впереди карьера в Голливуде, Стелла отвечает ему взаимностью и их чувства крепнут день ото дня.
Однако вскоре Джейк сталкивается с лицемерием и алчностью Голливудских воротил, а внезапное отъезд Стеллы в Европу ставит его на грань нервного срыва.
Кто и как поможет ему удержаться на плаву и не очутиться в палате для буйно помешанных? Может быть, старые друзья рокеры из группы U2 во главе с Боно?…



Страна: США
Продолжительность: 01:45:15
Перевод: Профессиональный (двухголосый, закадровый) R5 от «Союз-Видео»

Кодек: x264
Качество: DVDRip-AVC
Видео: 748x572, 3000 kbps, 25 fps
Аудио #1: AC-3, 6 ch, 384 kbps (Rus) - DVO R5 «Союз-Видео»
Аудио #2: AC-3, 6 ch, 384 kbps (Eng)
Субтитры: Русские (VobSub)

x264 [info]: frame I:1196 Avg QP:16.93 size: 67685
x264 [info]: frame P:31971 Avg QP:19.88 size: 29070
x264 [info]: frame B:124710 Avg QP:22.46 size: 10891
x264 [info]: consecutive B-frames: 1.5% 2.0% 6.1% 15.2% 12.7% 53.8% 5.9% 1.5% 0.6% 0.2% 0.2% 0.4% 0.0%

Общее
Уникальный идентификатор : 199802469241015030757586554379913785061 (0x96508E4C0386489CB568EEB5F8A9EEE5)
Полное имя : C:TorrentЭнтропия (Entropy) 1999 DVDRip.mkv
Формат : Matroska
Версия формата : Version 2
Размер файла : 2,77 Гбайт
Продолжительность : 1 ч. 45 м.
Общий поток : 3772 Кбит/сек
Дата кодирования : UTC 2017-08-08 07:05:41
Программа кодирования : mkvmerge v4.0.0 ('The Stars were mine') сборка от Jun 6 2010 16:18:42
Библиотека кодирования : libebml v1.0.0 + libmatroska v1.0.0

Видео
Идентификатор : 1
Формат : AVC
Формат/Информация : Advanced Video Codec
Профиль формата : High@L4.1
Параметр CABAC формата : Да
Параметр ReFrames формата : 12 кадров
Идентификатор кодека : V_MPEG4/ISO/AVC
Продолжительность : 1 ч. 45 м.
Битрейт : 3000 Кбит/сек
Ширина : 748 пикселей
Высота : 572 пикселя
Соотношение сторон : 4:3
Режим частоты кадров : Постоянный
Частота кадров : 25,000 кадров/сек
Цветовое пространство : YUV
Субдискретизация насыщенности : 4:2:0
Битовая глубина : 8 бит
Тип развёртки : Прогрессивная
Бит/(Пиксели*Кадры) : 0.280
Размер потока : 2,15 Гбайт (78%)
Библиотека кодирования : x264 core 146 r2538 121396c
Настройки программы : cabac=1 / ref=12 / deblock=1:-3:-3 / analyse=0x3:0x133 / me=umh / subme=11 / psy=1 / psy_rd=1.00:0.00 / mixed_ref=1 / me_range=32 / chroma_me=1 / trellis=2 / 8x8dct=1 / cqm=0 / deadzone=21,11 / fast_pskip=0 / chroma_qp_offset=-2 / threads=12 / lookahead_threads=2 / sliced_threads=0 / nr=0 / decimate=0 / interlaced=0 / bluray_compat=0 / constrained_intra=0 / bframes=12 / b_pyramid=2 / b_adapt=2 / b_bias=0 / direct=3 / weightb=1 / open_gop=0 / weightp=2 / keyint=250 / keyint_min=25 / scenecut=40 / intra_refresh=0 / rc=2pass / mbtree=0 / bitrate=3000 / ratetol=1.0 / qcomp=0.60 / qpmin=0 / qpmax=69 / qpstep=4 / cplxblur=20.0 / qblur=0.5 / ip_ratio=1.40 / pb_ratio=1.30 / aq=1:0.80
Язык : English
Default : Нет
Forced : Нет

Аудио #1
Идентификатор : 2
Формат : AC-3
Формат/Информация : Audio Coding 3
Расширение режима : CM (complete main)
Параметр Endianness формата : Big
Идентификатор кодека : A_AC3
Продолжительность : 1 ч. 45 м.
Вид битрейта : Постоянный
Битрейт : 384 Кбит/сек
Каналы : 6 каналов
Расположение каналов : Front: L C R, Side: L R, LFE
Частота : 48,0 КГц
Частота кадров : 31,250 кадров/сек (1536 spf)
Метод сжатия : С потерями
Размер потока : 289 Мбайт (10%)
Заголовок : DVO R5 «Союз-Видео»
Язык : Russian
Default : Нет
Forced : Нет

Аудио #2
Идентификатор : 3
Формат : AC-3
Формат/Информация : Audio Coding 3
Расширение режима : CM (complete main)
Параметр Endianness формата : Big
Идентификатор кодека : A_AC3
Продолжительность : 1 ч. 45 м.
Вид битрейта : Постоянный
Битрейт : 384 Кбит/сек
Каналы : 6 каналов
Расположение каналов : Front: L C R, Side: L R, LFE
Частота : 48,0 КГц
Частота кадров : 31,250 кадров/сек (1536 spf)
Метод сжатия : С потерями
Размер потока : 289 Мбайт (10%)
Язык : English
Default : Нет
Forced : Нет

Текст
Идентификатор : 4
Формат : VobSub
Режим смешивания : zlib
Идентификатор кодека : S_VOBSUB
Идентификатор кодека/Информация : Picture based subtitle format used on DVDs
Язык : Russian
Default : Нет
Forced : Нет



_________________
Проголосуй за трекер Открытый торрент трекер - RUS-MEDIA.ORG

Проголосуй Открытый торрент трекер - RUS-MEDIA.ORG


Вернуться к началу
 Профиль Отправить личное сообщение  
 
   Похожие торренты   Автор   Торрент   Размер 
В этой теме нет новых непрочитанных сообщений. Переживать / Я выживу / Sobreviviré [драма, мелодрама, комедия, 1999] DVDRip, Avo

salma3

10 | 2

1.46 ГБ

В этой теме нет новых непрочитанных сообщений. Герой ее романа / Paperback Hero [мелодрама, комедия, 1999] DVDRip, Dvo

salma3

98 | 18

1.36 ГБ

В этой теме нет новых непрочитанных сообщений. Фердинанд и Каролина / Ferdinando e Carolina [Мелодрама, комедия, 1999] DVDRip, Mvo

salma3

0 | 0

743.73 МБ

В этой теме нет новых непрочитанных сообщений. Одна за всех / Une pour toutes [мелодрама, комедия, 1999] DVDRip, Dvo

salma3

120 | 20

1.46 ГБ

В этой теме нет новых непрочитанных сообщений. Выскочка / Election [драма, мелодрама, комедия, 1999] BDRip 1080p, Dvo

salma3

5 | 1

7.82 ГБ

В этой теме нет новых непрочитанных сообщений. Управляя полетами / Pushing Tin [драма, мелодрама, комедия, 1999] WEB-DLRip, Mvo+Dvo

salma3

0 | 0

2.19 ГБ

В этой теме нет новых непрочитанных сообщений. Управляя полетами / Pushing Tin [Комедия, драма, мелодрама, 1999] HDRip-AVC, Mvo

salma3

101 | 28

2.66 ГБ


Начать новую тему Ответить на тему  [ 1 сообщение ] 




Для Мосгорсуда, Роскомнадзора и рекламодателей:: mosgorsud-torrent[собачка]yandex.ru
cron