Торрент файл
скачать торрент магнет ссылка Добавлен: 23 авг 2017, 21:03
Размер: 746.91 МБ
Сидеров: 61
Личеров: 7
Статус: (salma3)
Автор

СообщениеДобавлено: 23 авг 2017, 21:03 

Не в сети
Супермодератор
Аватара пользователя
Дата регистрации:
15 фев 2012, 16:44
Возраст: 28
Спасибо: 7203 / 2147
Сообщения: 64881
Год выхода: 1998
Жанр: Боевик, триллер, криминал
Режиссер: Джон Франкенхаймер

В ролях: Роберт Де Ниро, Жан Рено, Наташа МакЭлхоун, Стеллан Скарсгард, Шон Бин, Скипп Саддат, Микаэль Лонсдаль, Ян Триска, Джонатан Прайс, Рон Перкинс, Федор Аткин, Катарина Витт

О фильме:
Хотя холодная война давно закончена, тайные наемники, чьи навыки в слежке, шпионаже и силовых схватках буквально легендарны, остаются востребованными при новом мировом порядке и всегда находят высокооплачиваемую работу. Некий таинственный клиент собирает в Париже команду таких «платных оперативников», известных как «Ронины», для похищения сверхсекретного портфеля. Вскоре выясняется, что это, на первый взгляд простое, задание почти невыполнимо: та же цена обещана за тот же портфель еще нескольким нелегальным группам. Чтобы справиться с работой, бывший агент ЦРУ по кличке «Сэм» и его наспех сколоченный отряд должны делать то, чего им не приходилось делать никогда раньше: довериться друг другу...



Страна: Великобритания, Франция, США
Продолжительность: 02:01:34
Перевод: Профессиональный (полное дублирование) - Невафильм

Файл
Кодек: XviD
Качество: HDRip
Видео: 640x272 (2.35:1), 23.976 fps, XviD build 73 ~721 kbps avg, 0.17 bit/pixel
Звук: 48 kHz, MPEG Layer 3, 2 ch, ~128.00 kbps avg

Семпл

General
Complete name : D:Изготовление рипаRonin.HDRip.by shkiper.avi
Format : AVI
Format/Info : Audio Video Interleave
File size : 747 MiB
Duration : 2 h 1 min
Overall bit rate : 859 kb/s
Writing application : VirtualDubMod 1.5.10.3 | http://www.virtualdub-fr.org || (build 2550/release)
Writing library : VirtualDubMod build 2550/release

Video
ID : 0
Format : MPEG-4 Visual
Format profile : Advanced Simple@L5
Format settings, BVOP : 1
Format settings, QPel : No
Format settings, GMC : No warppoints
Format settings, Matrix : Custom
Codec ID : XVID
Codec ID/Hint : XviD
Duration : 2 h 1 min
Bit rate : 722 kb/s
Width : 640 pixels
Height : 272 pixels
Display aspect ratio : 2.35:1
Frame rate : 23.976 (24000/1001) FPS
Color space : YUV
Chroma subsampling : 4:2:0
Bit depth : 8 bits
Scan type : Progressive
Compression mode : Lossy
Bits/(Pixel*Frame) : 0.173
Stream size : 628 MiB (84%)
Writing library : XviD 73

Audio
ID : 1
Format : MPEG Audio
Format version : Version 1
Format profile : Layer 3
Codec ID : 55
Codec ID/Hint : MP3
Duration : 2 h 1 min
Bit rate mode : Constant
Bit rate : 128 kb/s
Channel(s) : 2 channels
Sampling rate : 48.0 kHz
Compression mode : Lossy
Stream size : 111 MiB (15%)
Alignment : Aligned on interleaves
Interleave, duration : 42 ms (1.00 video frame)
Interleave, preload duratio : 504 ms
Writing library : LAME3.99r
Encoding settings : -m s -V 4 -q 2 -lowpass 17 -b 128


Релиз от:


_________________
Проголосуй за трекер Открытый торрент трекер - RUS-MEDIA.ORG

Проголосуй Открытый торрент трекер - RUS-MEDIA.ORG


Вернуться к началу
 Профиль Отправить личное сообщение  
 
   Похожие торренты   Автор   Торрент   Размер 
В этой теме нет новых непрочитанных сообщений. Ронин / Ronin [Боевик, триллер, криминал, 1998] BDRip, Dub [Remastered]

salma3

85 | 20

1.46 ГБ

В этой теме нет новых непрочитанных сообщений. Ронин / Ronin [боевик, триллер, криминал, 1998] BDRip 1080p, Mvo [Remastered]

salma3

2 | 12

32.25 ГБ

В этой теме нет новых непрочитанных сообщений. Ронин / Ronin [боевик, триллер, криминал, 1998] BDRip 720p, Dub [Remastered]

salma3

19 | 12

14.47 ГБ

В этой теме нет новых непрочитанных сообщений. Ронин / Ronin [боевик, триллер, криминал, 1998] HDTVRip 1080p, Dub [Open Matte]

salma3

21 | 5

19.65 ГБ

В этой теме нет новых непрочитанных сообщений. Ливень / Hard Rain [Боевик, триллер, драма, криминал, 1998] HDRip, Dub

salma3

93 | 12

745.39 МБ

В этой теме нет новых непрочитанных сообщений. Простой план / A Simple Plan [триллер, драма, криминал, 1998] HDRip, Dvo

salma3

1 | 1

2.18 ГБ

В этой теме нет новых непрочитанных сообщений. Глаза змеи / Snake Eyes [триллер, криминал, детектив, 1998] HDRip-AVC, Dub

salma3

47 | 15

1.46 ГБ


Начать новую тему Ответить на тему  [ 1 сообщение ] 




Для Мосгорсуда, Роскомнадзора и рекламодателей:: mosgorsud-torrent[собачка]yandex.ru
cron