Торрент файл
скачать торрент магнет ссылка Добавлен: 22 авг 2017, 21:21
Размер: 2.18 ГБ
Сидеров: 5
Личеров: 6
Статус: (salma3)
Автор

СообщениеДобавлено: 22 авг 2017, 21:21 

Не в сети
Супермодератор
Аватара пользователя
Дата регистрации:
15 фев 2012, 16:44
Возраст: 28
Спасибо: 6593 / 2145
Сообщения: 44208
Год выхода: 1982
Жанр: боевик, триллер, драма
Режиссер: Марк Л. Лестер

В ролях: Перри Кинг, Мерри Линн Росс, Родди МакДауэлл, Тимоти Ван Паттен, Майкл Джей Фокс, Эл Уэксмэн

О фильме:
Банда оголтелых школьников преследует нового учителя, решившего навести в классе порядок. Озверевшие панки-школьники во главе с учеником-психопатом избивают его, а жену насилуют. Месть учителя не уступает по жестокости выходкам банды, но заметно превосходит их по изощренности.



Страна: Канада
Продолжительность: 01:38:13
Перевод: Авторский (одноголосый, закадровый) [Андрей. Гаврилов]

Файл
Качество: BDRip-AVC
Видео: High@L4.1, 1026x576 (16:9), 23.976 fps, ~2728 kbps
Аудио: AC3, 5.1 ch, 48KHz, 16-bit, 448 Kbps
Субтитры: английские

x264 info: frame I:1134 Avg QP:16.93 size: 91423
x264 info: frame P:30448 Avg QP:19.17 size: 28160
x264 info: frame B:109698 Avg QP:21.40 size: 9558
x264 info: consecutive B-frames: 1.4% 1.2% 7.4% 26.6% 23.9% 35.5% 2.9% 0.6% 0.1% 0.1% 0.0% 0.1% 0.2%
General
Unique ID : 69350562848363610589747528360659444241 (0x342C6EBC940EA7B68C482FDA41F6E211)
Complete name : F:FILMSКласс_1984.(1982).BDRIP-AVC.[-=DoMiNo=-].mkv
Format : Matroska
Format version : Version 4 / Version 2
File size : 2.18 GiB
Duration : 1 h 38 min
Overall bit rate : 3 180 kb/s
Movie name : Класс 1984
Deion : Банда оголтелых школьников преследует нового учителя, решившего навести в классе порядок. Озверевшие панки-школьники во главе с учеником-психопатом избивают его, а жену насилуют. Месть учителя не уступает по жестокости выходкам банды, но заметно превосходит их по изощренности.
Writing application : XviD4PSP 7.0.400 DAILY
Writing library : Lavf57.71.100
Cover : Yes
ErrorDetectionType : Per level 1
Attachments : cover.jpg
ACTORS : Перри Кинг, Мерри Линн Росс, Тимоти Ван Паттен, Родди МакДауэлл, Стефан Арнгрим, Майкл Дж. Фокс, Кит Найт, Лиза Ланглуа, Нил Клиффорд, Эл Уоксмен, Эрин Ноубл, Дэвид Гарднер, Steve Pernie, Роберт Рис, Джозеф Келли, Элва Мэй Хувер, Vincent Abbatino, Ивэн Грин, Линда Соренсон, Клод Рэй, Джек Лиа, Трэйси Кинселла, Хелена Куинтон, Дон Бухсбаум, Darlene Burlie, Мишель Колман, Рой Т. Андерсон, Teenage Head, Маршалл Джей Каплан, Frankie Venom
COMPOSER : Лало Шифрин
COUNTRY : Канада
DATE : 1982
DIRECTOR : Марк Л. Лестер
ENCODING_INFO : MATROSKA,WEBM > MKV Произвольный / H264 > X264 VBR-2P 2728kbps Произвольный / AC3 > COPY Безопасное
GENRE : боевик, триллер, драма, криминал
HD_VIDEO : 1
IMDB_RATING : 6.60
ITUNEXTC : mpaa|R|400|
Language : und
MEDIA_TYPE : 9
ORIGINAL_ACTORS : Perry King, Merrie Lynn Ross, Timothy Van Patten, Roddy McDowall, Stefan Arngrim, Michael J. Fox (в титрах: Michael Fox), Keith Knight, Lisa Langlois, Neil Clifford, Al Waxman, Erin Noble (в титрах: Erin Flannery), David Gardner, Robert Reece, Joseph Kelly, Elva Mai Hoover, Evan Green, Linda Sorenson, Claude Rae, Jack Lea, Tracy Kinsella, Helena Quinton, Don Buchsbaum, Michelle Kolman, Roy T. Anderson (в титрах: Roy [Tony] Anderson), Marshall Jay Kaplan
ORIGINAL_TITLE : Class of 1984
PRODUCER : Артур Кент, Марк Л. Лестер, Мерри Линн Росс
RATING : 6.921
WRITER : Том Холланд, Марк Л. Лестер, Джон С. Сэкстон, Бэрри Шнайдер

Video
ID : 1
Format : AVC
Format/Info : Advanced Video Codec
Format profile : High@L4.1
Format settings, CABAC : Yes
Format settings, RefFrames : 10 frames
Codec ID : V_MPEG4/ISO/AVC
Duration : 1 h 38 min
Bit rate : 2 728 kb/s
Width : 1 026 pixels
Height : 576 pixels
Display aspect ratio : 16:9
Frame rate mode : Constant
Frame rate : 23.976 (24000/1001) FPS
Color space : YUV
Chroma subsampling : 4:2:0
Bit depth : 8 bits
Scan type : Progressive
Bits/(Pixel*Frame) : 0.193
Stream size : 1.83 GiB (84%)
Title : RIP_BY_-=DoMiNo=-
Writing library : x264 core 152 r2851M ba24899
Encoding settings : cabac=1 / ref=10 / deblock=1:-3:-3 / analyse=0x3:0x133 / me=umh / subme=11 / psy=1 / psy_rd=1.00:0.05 / mixed_ref=1 / me_range=32 / chroma_me=1 / trellis=2 / 8x8dct=1 / cqm=0 / deadzone=21,11 / fast_pskip=1 / chroma_qp_offset=-3 / threads=6 / lookahead_threads=1 / sliced_threads=0 / nr=0 / decimate=1 / interlaced=0 / bluray_compat=0 / constrained_intra=0 / bframes=12 / b_pyramid=2 / b_adapt=2 / b_bias=0 / direct=3 / weightb=1 / open_gop=0 / weightp=2 / keyint=230 / keyint_min=23 / scenecut=40 / intra_refresh=0 / rc_lookahead=60 / rc=2pass / mbtree=1 / bitrate=2728 / ratetol=1.0 / qcomp=0.70 / qpmin=0 / qpmax=69 / qpstep=4 / cplxblur=20.0 / qblur=0.5 / ip_ratio=1.40 / aq=1:1.00
Default : Yes
Forced : No

Audio
ID : 2
Format : AC-3
Format/Info : Audio Coding 3
Format settings, Endianness : Big
Codec ID : A_AC3
Duration : 1 h 38 min
Bit rate mode : Constant
Bit rate : 448 kb/s
Channel(s) : 6 channels
Channel positions : Front: L C R, Side: L R, LFE
Sampling rate : 48.0 kHz
Frame rate : 31.250 FPS (1536 SPF)
Bit depth : 16 bits
Compression mode : Lossy
Stream size : 314 MiB (14%)
Title : AVO_Гаврилов А. Ю.
Language : Russian
Service kind : Complete Main
Default : Yes
Forced : No

Text
ID : 3
Format : UTF-8
Codec ID : S_TEXT/UTF8
Codec ID/Info : UTF-8 Plain Text
Duration : 1 h 34 min
Title : ENG
Language : English
Default : Yes
Forced : No

Menu
00:00:00.000 : :Глава 1
00:10:40.264 : :Глава 2
00:17:39.141 : :Глава 3
00:26:31.840 : :Глава 4
00:35:56.696 : :Глава 5
00:45:00.864 : :Глава 6
00:53:28.121 : :Глава 7
01:00:39.510 : :Глава 8
01:07:26.208 : :Глава 9
01:16:55.027 : :Глава 10
01:22:54.427 : :Глава 11
01:30:46.399 : :Глава 12


_________________
Проголосуй за трекер Открытый торрент трекер - RUS-MEDIA.ORG

Проголосуй Открытый торрент трекер - RUS-MEDIA.ORG



реклама партнёра


Вернуться к началу
 Профиль Отправить личное сообщение  
 
   Похожие торренты   Автор   Торрент   Размер 
В этой теме нет новых непрочитанных сообщений. Класс 1984 / Class of 1984 [боевик, триллер, драма, 1982] BDRip, Avo

salma3

27 | 4

1.45 ГБ

В этой теме нет новых непрочитанных сообщений. Класс 1984 / Class of 1984 [боевик, триллер, драма, криминал, 1982] BDRip 720p, Avo

salma3

13 | 16

4.67 ГБ

В этой теме нет новых непрочитанных сообщений. Класс 1984 / Class of 1984 [боевик, триллер, драма, криминал, 1982] BDRip 1080p, Avo

salma3

101 | 32

7.76 ГБ

В этой теме нет новых непрочитанных сообщений. Класс 1984 / Class of 1984 [боевик, триллер, драма, 1982] HDRip, Avo

salma3

30 | 8

745.19 МБ

В этой теме нет новых непрочитанных сообщений. Класс 1984 / Class of 1984 [боевик, триллер, драма, криминал, 1982] BDRemux 1080p, Avo+Sub

salma3

10 | 2

28.28 ГБ

В этой теме нет новых непрочитанных сообщений. Люди Икс: Первый класс / X-Men: First Class [фантастика, боевик, приключения, 2011] BDRip, Avo [Гаврилов]

salma3

10 | 7

2.18 ГБ

В этой теме нет новых непрочитанных сообщений. Без вести пропавшие / Missing in Action [боевик, триллер, драма, приключения, военный, 1984] BDRip 720p, Mvo+Avo+Sub

salma3

10 | 5

6.18 ГБ


Начать новую тему Ответить на тему  [ 1 сообщение ] 




Для Мосгорсуда, Роскомнадзора и рекламодателей:: mosgorsud-torrent[собачка]yandex.ru