Торрент файл
скачать торрент магнет ссылка Добавлен: 19 авг 2017, 15:45
Размер: 747.02 МБ
Сидеров: 107
Личеров: 27
Статус: (salma3)
Автор

СообщениеДобавлено: 19 авг 2017, 15:45 

Не в сети
Супермодератор
Аватара пользователя
Дата регистрации:
15 фев 2012, 16:44
Возраст: 29
Спасибо: 7339 / 2147
Сообщения: 75713
Год выхода: 1988
Жанр: Фантастика, комедия, приключения
Режиссер: Дэниэл Петри

В ролях: Дон Амичи, Уилфорд Бримли, Кортни Кокс, Хьюм Кронин, Джек Гилфорд, Стив Гуттенберг, Баррет Оливер, Морин Стейплтон, Илэйн Стритч, Джессика Тэнди

О фильме :
Продолжение истории о чудодейственном коконе, который когда-то забыли на Земле инопланетяне. Те же бравые старички, которые хотели омолодиться с помощью инопланетной силы, вновь ввязываются в увлекательную, но небезопасную авантюру- ведь чужаки в коконе опять вернулись на Землю, чтобы доставить массу беспокойства ее обитателям.



Страна: США
Продолжительность: 01:56:23
Перевод: Профессиональный многоголосый [1 канал со вставкой DVO на вырезанный фрагмент]

Файл
Формат: MKV
Качество: WEB-DLRip-AVC
Видео: MPEG-4 AVC, 704x396, ~ 823 Кбит/с
Аудио: AAC-LC, 2 ch, ~72 Кбит/с
Субтитры: русские, английские

Общее
Уникальный идентификатор : 214123847621256580570045167717852040623 (0xA116C0C438FA2D158275D8B3710ACDAF)
Полное имя : D:MOVIESCocoon.The.Return.1988.ExKinoRay.mkv
Формат : Matroska
Версия формата : Version 4 / Version 2
Размер файла : 747 Мбайт
Продолжительность : 1 ч. 56 м.
Общий поток : 897 Кбит/сек
Название фильма : Cocoon.The.Return.1988.1080p.WEB-DL.DD5.1.H264-FGT
Дата кодирования : UTC 2017-08-19 06:13:03
Программа кодирования : mkvmerge v13.0.0 ('The Juggler') 64bit
Библиотека кодирования : libebml v1.3.4 + libmatroska v1.4.5
Обложка : Yes
Attachments : cover_land.jpg / small_cover.jpg / small_cover_land.jpg / cover.jpg

Видео
Идентификатор : 1
Формат : AVC
Формат/Информация : Advanced Video Codec
Профиль формата : High@L4.1
Параметр CABAC формата : Да
Параметр RefFrames формата : 9 кадров
Идентификатор кодека : V_MPEG4/ISO/AVC
Продолжительность : 1 ч. 56 м.
Битрейт : 823 Кбит/сек
Ширина : 704 пикселя
Высота : 396 пикселей
Соотношение сторон : 16:9
Режим частоты кадров : Постоянный
Частота кадров : 23,976 (24000/1001) кадра/сек
Цветовое пространство : YUV
Субдискретизация насыщенности : 4:2:0
Битовая глубина : 8 бит
Тип развёртки : Прогрессивная
Бит/(Пиксели*Кадры) : 0.123
Размер потока : 685 Мбайт (92%)
Заголовок : Cocoon.The.Return
Библиотека кодирования : x264 core 146 r2538 121396c
Настройки программы : cabac=1 / ref=9 / deblock=1:-2:-2 / analyse=0x3:0x113 / me=umh / subme=11 / psy=1 / psy_rd=1.00:0.20 / mixed_ref=1 / me_range=32 / chroma_me=1 / trellis=2 / 8x8dct=1 / cqm=0 / deadzone=21,11 / fast_pskip=1 / chroma_qp_offset=-3 / threads=6 / lookahead_threads=1 / sliced_threads=0 / nr=0 / decimate=0 / interlaced=0 / bluray_compat=0 / constrained_intra=0 / bframes=9 / b_pyramid=2 / b_adapt=2 / b_bias=0 / direct=3 / weightb=1 / open_gop=0 / weightp=2 / keyint=240 / keyint_min=23 / scenecut=40 / intra_refresh=0 / rc_lookahead=40 / rc=2pass / mbtree=0 / bitrate=823 / ratetol=1.0 / qcomp=0.60 / qpmin=0 / qpmax=69 / qpstep=4 / cplxblur=20.0 / qblur=0.5 / vbv_maxrate=50000 / vbv_bufsize=62500 / nal_hrd=none / filler=0 / ip_ratio=1.40 / pb_ratio=1.30 / aq=1:1.00
Default : Да
Forced : Нет

Аудио
Идентификатор : 2
Формат : AAC
Формат/Информация : Advanced Audio Codec
Профиль формата : LC
Идентификатор кодека : A_AAC
Продолжительность : 1 ч. 56 м.
Битрейт : 72,0 Кбит/сек
Каналы : 2 канала
Расположение каналов : Front: L R
Частота : 48,0 КГц
Частота кадров : 46,875 кадров/сек (1024 SPF)
Метод сжатия : С потерями
Размер потока : 59,9 Мбайт (8%)
Default : Да
Forced : Нет

Текст #1
Идентификатор : 3
Формат : UTF-8
Идентификатор кодека : S_TEXT/UTF8
Идентификатор кодека/Информация : UTF-8 Plain Text
Продолжительность : 1 ч. 50 м.
Битрейт : 68 бит/сек
ElementCount : 1108
Размер потока : 55,0 Кбайт (0%)
Заголовок : rus
Язык : Russian
Default : Да
Forced : Нет

Текст #2
Идентификатор : 4
Формат : UTF-8
Идентификатор кодека : S_TEXT/UTF8
Идентификатор кодека/Информация : UTF-8 Plain Text
Продолжительность : 1 ч. 50 м.
Битрейт : 48 бит/сек
ElementCount : 1170
Размер потока : 39,0 Кбайт (0%)
Заголовок : eng
Язык : English
Default : Нет
Forced : Нет




Релиз от:


_________________
Проголосуй за трекер Открытый торрент трекер - RUS-MEDIA.ORG

Проголосуй Открытый торрент трекер - RUS-MEDIA.ORG


Вернуться к началу
 Профиль Отправить личное сообщение  
 
   Похожие торренты   Автор   Торрент   Размер 
В этой теме нет новых непрочитанных сообщений. Кокон / Cocoon [фантастика, драма, 1985] BDRip 720p, Dub

salma3

41 | 14

8.11 ГБ

В этой теме нет новых непрочитанных сообщений. Кокон / Cocoon [фантастика, драма, 1985] BDRip 1080p, Dub

salma3

46 | 17

10.39 ГБ

В этой теме нет новых непрочитанных сообщений. Возвращение живых мертвецов 2 / The Return of the Living Dead Part II [ужасы, комедия, 1988] WEB-DLRip-AVC, Mvo

salma3

25 | 26

744.3 МБ

В этой теме нет новых непрочитанных сообщений. Возвращение помидоров-убийц / Return of the Killer Tomatoes [Комедия, фантастика, ужасы, 1988] BDRip-AVC, Dvo

salma3

2 | 1

2.03 ГБ

В этой теме нет новых непрочитанных сообщений. Возвращение помидоров-убийц / Return of the Killer Tomatoes [ужасы, фантастика, комедия, 1988] BDRip, Dvo

salma3

3 | 0

1.45 ГБ

В этой теме нет новых непрочитанных сообщений. Возвращение помидоров-убийц / Return of the Killer Tomatoes! [ужасы, фантастика, комедия, 1988] BDRemux 1080р, Mvo

salma3

14 | 11

23.14 ГБ

В этой теме нет новых непрочитанных сообщений. Возвращение живых мертвецов 2 / Return of the Living Dead: Part II [ужасы, фантастика, комедия, 1988] WEBRip 1080p, Mvo+Avo

salma3

24 | 30

9.62 ГБ


Начать новую тему Ответить на тему  [ 1 сообщение ] 




Для Мосгорсуда, Роскомнадзора и рекламодателей:: mosgorsud-torrent[собачка]yandex.ru
cron