Торрент файл
скачать торрент магнет ссылка Добавлен: 10 авг 2017, 09:07
Размер: 2.05 ГБ
Сидеров: 38
Личеров: 6
Статус: (salma3)
Автор

СообщениеДобавлено: 10 авг 2017, 09:07 

Не в сети
Супермодератор
Аватара пользователя
Дата регистрации:
15 фев 2012, 16:44
Возраст: 28
Спасибо: 7205 / 2147
Сообщения: 65464
Год выпуска: 1997
Жанр: фантастика, триллер, ужасы
Режиссер: Марк Э. З. Диппе

В ролях: Джон Легуизамо, Мартин Шин, Тереза Рэндл, Майко Хьюз, Д.Б. Суини, Майкл Джэй Уайт, Мелинда Кларк, Никол Уильямсон, Сидни Бодуан

О фильме:
Идет извечная борьба между между небесами и адом. Их армии пополняются душами, взятыми с Земли. Дьявол послал лейтенанта, чтобы собрать людей, которые помогут уничтожить мир в обмен на богатство и власть и добыть достаточно душ, чтобы укомплектовать свою армию и позволить Армагеддону начаться. Все, что сейчас нужно Мел Боуги, — это великий воин, кто-то, кто бы повел свою орду к небесным вратам и испепелил бы их...
Эл Симмонз, лучший из террористов, состоял на службе у господина Вина, давно продавшего свою душу Дьяволу за господство над миром. В войне между небесами и адом силам зла требуется самый лучший боец из ныне живущих. Им как раз и оказался Эл. После страшного взрыва, устроенного Вином на одном из заводов биологического оружия, Эл попадает в потусторонний мир, приобретая качества сверхъестественные, поддающиеся, однако, самоконтролю. Бывший террорист оказался добрым малым, и адский "клоун", подстегивающий Спауна (Эла) на жуткие злодеяния, терпит поражение. Фильм поставлен по комиксам Тодда МакФарлэйна, и любители быстрого действия и хороших спецэффектов получат удовольствие.



Страна: США
Продолжительность: 01:38:29
Перевод: Профессиональный (многоголосый закадровый) «Киномания»
Профессиональный (двухголосый закадровый) Юниверсал, "Союз-Видео", ИНИС

Файл
Кодек: H.265
Качество: BDRip-HEVC
Видео: 1024x576 (16:9), 1696 kbps, 23.976 fps
Звук: Русский (AC-3, 6ch, 448 kbps) - «Киномания»
Русский (AC-3, 2ch, 192 kbps) - "Союз-Видео"
Русский (AC-3, 2ch, 192 kbps) - Юниверсал
Русский (AC-3, 6ch, 448 kbps) - ИНИС
Субтитры: русские, английские

General
Unique ID : 228890898351802650198685761461277610223 (0xAC32C8945498E8A7B9DD66721FB2D0EF)
Complete name : F:HEVCСпаун.(Режисс.версия).1997.x265.BDRip-AVC.HEVC-10bit.MVO+DVOx3.mkv
Format : Matroska
Format version : Version 4 / Version 2
File size : 2.05 GiB
Duration : 1 h 38 min
Overall bit rate : 2 976 kb/s
Movie name : Спаун / Spawn (1997) - #LORDKILL#
Encoded date : UTC 2017-08-09 18:25:30
Writing application : mkvmerge v9.5.0 ('Quiet Fire') 64bit
Writing library : libebml v1.3.4 + libmatroska v1.4.5

Video
ID : 1
Format : HEVC
Format/Info : High Efficiency Video Coding
Codec ID : V_MPEGH/ISO/HEVC
Duration : 1 h 38 min
Bit rate : 1 696 kb/s
Width : 1 024 pixels
Height : 576 pixels
Display aspect ratio : 16:9
Frame rate mode : Constant
Frame rate : 23.976 (24000/1001) FPS
Color space : YUV
Chroma subsampling : 4:2:0
Bit depth : 10 bits
Bits/(Pixel*Frame) : 0.120
Stream size : 1.17 GiB (57%)
Writing library : x265 1.5+88-0e89af0781ee:[Windows][GCC 4.8.2][64 bit] 16bpp
Encoding settings : wpp / ctu=64 / min-cu-size=8 / max-tu-size=32 / tu-intra-depth=1 / tu-inter-depth=1 / me=2 / subme=6 / merange=96 / no-rect / no-amp / max-merge=2 / temporal-mvp / no-early-skip / rdpenalty=0 / no-tskip / no-tskip-fast / strong-intra-smoothing / no-lossless / no-cu-lossless / no-constrained-intra / no-fast-intra / open-gop / no-temporal-layers / interlace=0 / keyint=240 / min-keyint=23 / scenecut=40 / rc-lookahead=20 / bframes=8 / bframe-bias=0 / b-adapt=2 / ref=7 / weightp / no-weightb / aq-mode=1 / aq-strength=0.30 / cbqpoffs=0 / crqpoffs=0 / rd=3 / psy-rd=0.50 / psy-rdoq=0.00 / signhide / lft / sao / no-sao-non-deblock / b-pyramid / cutree / rc=crf / crf=20.5 / qcomp=0.80 / qpmin=0 / qpmax=51 / qpstep=4 / vbv-maxrate=20000 / vbv-bufsize=20000 / crf-max=0.0 / ipratio=1.10 / pbratio=1.10
Default : Yes
Forced : No

Audio #1
ID : 2
Format : AC-3
Format/Info : Audio Coding 3
Mode extension : CM (complete main)
Format settings, Endianness : Big
Codec ID : A_AC3
Duration : 1 h 38 min
Bit rate mode : Constant
Bit rate : 448 kb/s
Channel(s) : 6 channels
Channel positions : Front: L C R, Side: L R, LFE
Sampling rate : 48.0 kHz
Frame rate : 31.250 FPS (1536 spf)
Bit depth : 16 bits
Compression mode : Lossy
Stream size : 316 MiB (15%)
Title : MVO - «Киномания»
Language : Russian
Default : No
Forced : No

Audio #2
ID : 3
Format : AC-3
Format/Info : Audio Coding 3
Mode extension : CM (complete main)
Format settings, Endianness : Big
Codec ID : A_AC3
Duration : 1 h 38 min
Bit rate mode : Constant
Bit rate : 192 kb/s
Channel(s) : 2 channels
Channel positions : Front: L R
Sampling rate : 48.0 kHz
Frame rate : 31.250 FPS (1536 spf)
Bit depth : 16 bits
Compression mode : Lossy
Delay relative to video : 24 ms
Stream size : 135 MiB (6%)
Title : DVO - "Союз-Видео"
Language : Russian
Default : No
Forced : No

Audio #3
ID : 4
Format : AC-3
Format/Info : Audio Coding 3
Mode extension : CM (complete main)
Format settings, Endianness : Big
Codec ID : A_AC3
Duration : 1 h 38 min
Bit rate mode : Constant
Bit rate : 192 kb/s
Channel(s) : 2 channels
Channel positions : Front: L R
Sampling rate : 48.0 kHz
Frame rate : 31.250 FPS (1536 spf)
Bit depth : 16 bits
Compression mode : Lossy
Delay relative to video : 27 ms
Stream size : 135 MiB (6%)
Title : DVO - Юниверсал
Language : Russian
Default : Yes
Forced : No

Audio #4
ID : 5
Format : AC-3
Format/Info : Audio Coding 3
Mode extension : CM (complete main)
Format settings, Endianness : Big
Codec ID : A_AC3
Duration : 1 h 38 min
Bit rate mode : Constant
Bit rate : 448 kb/s
Channel(s) : 6 channels
Channel positions : Front: L C R, Side: L R, LFE
Sampling rate : 48.0 kHz
Frame rate : 31.250 FPS (1536 spf)
Bit depth : 16 bits
Compression mode : Lossy
Delay relative to video : 5 ms
Stream size : 316 MiB (15%)
Title : DVO - ИНИС
Language : Russian
Default : No
Forced : No

Text #1
ID : 6
Format : UTF-8
Codec ID : S_TEXT/UTF8
Codec ID/Info : UTF-8 Plain Text
Duration : 1 h 30 min
Bit rate : 73 b/s
Count of elements : 998
Stream size : 48.6 KiB (0%)
Language : Russian
Default : No
Forced : No

Text #2
ID : 7
Format : UTF-8
Codec ID : S_TEXT/UTF8
Codec ID/Info : UTF-8 Plain Text
Duration : 1 h 38 min
Bit rate : 52 b/s
Count of elements : 1211
Stream size : 37.4 KiB (0%)
Language : English
Default : No
Forced : No


_________________
Проголосуй за трекер Открытый торрент трекер - RUS-MEDIA.ORG

Проголосуй Открытый торрент трекер - RUS-MEDIA.ORG


Вернуться к началу
 Профиль Отправить личное сообщение  
 
   Похожие торренты   Автор   Торрент   Размер 
В этой теме нет новых непрочитанных сообщений. Эффект бабочки / The Butterfly Effect [фантастика, триллер, драма, 2004] BDRip-HEVC 1080p, Dub [Режиссёрская версия]

salma3

21 | 0

4.59 ГБ

В этой теме нет новых непрочитанных сообщений. Эффект бабочки / The Butterfly Effect [фантастика, триллер, драма, 2004] BDRip-HEVC 1080p, Dub [Режиссёрская версия]

salma3

55 | 6

5.38 ГБ

В этой теме нет новых непрочитанных сообщений. Генозавр 2: Смертельные инстинкты / Отродье / Размножители / Breeders / Deadly Instincts [Фантастика, ужасы, 1997] DVDRip Avo

salma3

2 | 1

1.45 ГБ

В этой теме нет новых непрочитанных сообщений. Газонокосильщик / The Lawnmower Man [Ужасы, фантастика, 1992] BDRip 1080p, Mvo [Режиссерская версия]

salma3

48 | 38

27.14 ГБ

В этой теме нет новых непрочитанных сообщений. Пила 5 / Saw V [ужасы, детектив, триллер, 2008] BDRip 720p, Dub [Режиссерская версия]

salma3

0 | 0

6.58 ГБ

В этой теме нет новых непрочитанных сообщений. Пила 4 / Saw IV [ужасы, триллер, детектив, 2007] BDRip 720p, Dub [Режиссерская версия]

salma3

0 | 0

7.76 ГБ

В этой теме нет новых непрочитанных сообщений. Пила 3 / Saw III [ужасы, детектив, триллер, 2006] BDRip 720p, Dub [Режиссерская версия]

salma3

0 | 0

9.71 ГБ


Начать новую тему Ответить на тему  [ 1 сообщение ] 




Для Мосгорсуда, Роскомнадзора и рекламодателей:: mosgorsud-torrent[собачка]yandex.ru
cron