Торрент файл
скачать торрент магнет ссылка Добавлен: 08 авг 2017, 21:16
Размер: 1.47 ГБ
Сидеров: 106
Личеров: 40
Статус: (salma3)
Автор

СообщениеДобавлено: 08 авг 2017, 21:16 

Не в сети
Супермодератор
Аватара пользователя
Дата регистрации:
15 фев 2012, 16:44
Возраст: 29
Спасибо: 7328 / 2147
Сообщения: 73609
Год выпуска: 1991
Жанр: фантастика, боевик, триллер
Режиссер: Ави Нешер

В ролях: Майкл Бин, Пэтси Кензит, Трэйси Скоггинс, Роберт Калп, Ричард Джордан, Рэймонд Сейнт-Жак, Билли Блэнкс, Джим Маниачи

Описание:
Главный герой фильма — Эдди Кей. Некоторое время он имел дело с государственными органами Америки и имел доступ к некоторым военным тайнам. Этот человек попадает в катастрофу, частично теряет память, и его мучают кошмары. Тогда он обращается за помощью к психиатру Анне Нолмар. Вначале женщина думает что он сумасшедший, но его опасения имеют реальную основу. Вдвоём они пытаются противостоять угрозе и восстановить память Эдди...



Страна: США
Продолжительность: 01:32:21
Перевод: Профессиональный (двухголосый) | НТВ+ + Профессиональный (многоголосый) | СВ-кадр / по заказу ТВ6 от 1997 года

Качество: DVDRip
Видео: 720x400 (16:9), 25.000 fps, XviD ~1 600 kbps avg
Аудио №1: 48.0 kHz, AC3 Dolby Digital, 2/0 (L,R) ch, ~192 kbps | DVO / НТВ+
Аудио №2: 48.0 kHz, AC3 Dolby Digital, 2/0 (L,R) ch, ~192 kbps | MVO / СВ-кадр
Аудио №3: 48.0 kHz, AC3 Dolby Digital, 2/0 (L,R) ch, ~192 kbps | ENG

General
General
Complete name : Успеть вспомнить (1991. Timebomb).avi
Format : AVI
Format/Info : Audio Video Interleave
File size : 1.47 GiB
Duration : 1h 32mn
Overall bit rate : 2 279 Kbps
Writing application : VirtualDubMod 1.5.10.2 (build 2540/release)
Writing library : VirtualDubMod build 2540/release

Video
ID : 0
Format : MPEG-4 Visual
Format profile : Advanced Simple@L5
Format settings, BVOP : 1
Format settings, QPel : No
Format settings, GMC : No warppoints
Format settings, Matrix : Default (MPEG)
Codec ID : XVID
Codec ID/Hint : XviD
Duration : 1h 32mn
Bit rate : 1 600 Kbps
Width : 720 pixels
Height : 400 pixels
Display aspect ratio : 16:9
Frame rate : 25.000 fps
Color space : YUV
Chroma subsampling : 4:2:0
Bit depth : 8 bits
Scan type : Progressive
Compression mode : Lossy
Bits/(Pixel*Frame) : 0.222
Stream size : 1.03 GiB (70%)
Writing library : XviD 1.2.1 (UTC 2008-12-04)

Audio #1
ID : 1
Format : AC-3
Format/Info : Audio Coding 3
Mode extension : CM (complete main)
Format settings, Endianness : Big
Codec ID : 2000
Duration : 1h 32mn
Bit rate mode : Constant
Bit rate : 192 Kbps
Channel(s) : 2 channels
Channel positions : Front: L R
Sampling rate : 48.0 KHz
Compression mode : Lossy
Stream size : 127 MiB (8%)
Alignment : Split accross interleaves

Audio #2
ID : 2
Format : AC-3
Format/Info : Audio Coding 3
Mode extension : CM (complete main)
Format settings, Endianness : Big
Codec ID : 2000
Duration : 1h 32mn
Bit rate mode : Constant
Bit rate : 192 Kbps
Channel(s) : 2 channels
Channel positions : Front: L R
Sampling rate : 48.0 KHz
Compression mode : Lossy
Stream size : 127 MiB (8%)
Alignment : Split accross interleaves

Audio #3
ID : 3
Format : AC-3
Format/Info : Audio Coding 3
Format profile : Dolby Digital
Mode extension : CM (complete main)
Format settings, Endianness : Big
Codec ID : 2000
Duration : 1h 32mn
Bit rate mode : Constant
Bit rate : 192 Kbps
Channel(s) : 2 channels
Channel positions : Front: L R
Sampling rate : 48.0 KHz
Compression mode : Lossy
Stream size : 127 MiB (8%)
Alignment : Split accross interleaves


_________________
Проголосуй за трекер Открытый торрент трекер - RUS-MEDIA.ORG

Проголосуй Открытый торрент трекер - RUS-MEDIA.ORG


Вернуться к началу
 Профиль Отправить личное сообщение  
 
   Похожие торренты   Автор   Торрент   Размер 
В этой теме нет новых непрочитанных сообщений. Бомба замедленного действия / Timebomb [фантастика, боевик, триллер, драма, 1991] BDRip-AVC, Mvo

salma3

39 | 2

2.18 ГБ

В этой теме нет новых непрочитанных сообщений. Бомба замедленного действия / Timebomb [фантастика, боевик, триллер, 1991] BDRip 720p, Mvo

salma3

8 | 7

6.45 ГБ

В этой теме нет новых непрочитанных сообщений. Бомба замедленного действия / Timebomb [фантастика, боевик, триллер, драма, 1991] BDRip, Mvo

salma3

50 | 3

1.46 ГБ

В этой теме нет новых непрочитанных сообщений. Бомба замедленного действия / Timebomb [фантастика, боевик, триллер, 1991] BDRemux 1080p, Mvo

salma3

0 | 0

20.73 ГБ

В этой теме нет новых непрочитанных сообщений. Бомба замедленного действия / Timebomb [фантастика, боевик, триллер, 1991] BDRip 1080p, Mvo

salma3

19 | 13

8.89 ГБ

В этой теме нет новых непрочитанных сообщений. Смертельные узы / Wedlock [фантастика, боевик, триллер, 1991] DVDRip-AVC, Dvo

salma3

0 | 0

3.91 ГБ

В этой теме нет новых непрочитанных сообщений. Город-бомба / Bomb City [Боевик, триллер, драма, 2017] WEB-DLRip, Mvo

salma3

754 | 130

1.37 ГБ


Начать новую тему Ответить на тему  [ 1 сообщение ] 




Для Мосгорсуда, Роскомнадзора и рекламодателей:: mosgorsud-torrent[собачка]yandex.ru
cron