Торрент файл
скачать торрент магнет ссылка Добавлен: 28 июл 2017, 20:43
Размер: 1.8 ГБ
Сидеров: 196
Личеров: 47
Статус: (salma3)
Автор

СообщениеДобавлено: 28 июл 2017, 20:43 

Не в сети
Супермодератор
Аватара пользователя
Дата регистрации:
15 фев 2012, 16:44
Возраст: 28
Спасибо: 6642 / 2146
Сообщения: 45664
Год выхода: 2017
Жанр: комедия
Режиссер: Крэйг Джонсон

В ролях: Вуди Харрельсон, Сэнди Ойан, Шон Браун, Джеймс Роберт Миллер, Бретт Гельман, Мэри Линн Райскаб, Джуди Грир, Туссен Моррисон, Эндрю Хоутри, Ричард Оомс

О фильме: Уилсон — одинокий, невротичный и до забавного честный человек среднего возраста, он не любит людей, но обожает собак. Он воссоединяется со своей бывшей женой и получает невероятный заряд счастья, когда узнает, что у него есть дочь-подросток, которую он никогда не встречал. В своем уникально возмутительном и слегка вывернутом наизнанку путём, Уилсон устанавливает, что воссоединение с ней — это может быть его последний шанс завести семью.



Выпущено: США / Ad Hominem Enterprises
Продолжительность: 01:35:42
Перевод: Профессиональный (многоголосый закадровый) [iTunes]

Качество: BDRip-AVC
Видео: 1024x554 (2.40:1), 23,976 fps, AVC MPEG-4 (x264), , ~ 1900 kbps avg, 0.140 bit/pixel
Аудио #1: Русский: 48 kHz/16 bits, AC3 Dolby Digital, 3/2 (L,C,R,l,r) + LFE ch, ~ 384 kbps avg
Аудио #2: Английский: 48 kHz/16 bits, AC3 Dolby Digital, 3/2 (L,C,R,l,r) + LFE ch, ~ 448 kbps avg
Cубтитры: Английские



Общее
Уникальный идентификатор : 231591657924152875105779568878493129480 (0xAE3AEE4E9640055A8D5E4B648D6C5B08)
Полное имя : D:ЗагрузкиWilson.2017.BDRip(AVC).OlLanDGroup.mkv
Формат : Matroska
Версия формата : Version 2
Размер файла : 1,80 Гбайт
Продолжительность : 1 ч. 34 м.
Общий поток : 2731 Кбит/сек
Название фильма : Wilson.2017 #TorpedoUK#
Дата кодирования : UTC 2017-07-27 19:32:29
Программа кодирования : mkvmerge v5.6.0 ('Kenya Kane') built on May 27 2012 16:44:04
Библиотека кодирования : libebml v1.2.3 + libmatroska v1.3.0
Attachements : poster.JPG

Видео
Идентификатор : 1
Формат : AVC
Формат/Информация : Advanced Video Codec
Профиль формата :
Параметр CABAC формата : Да
Параметр ReFrames формата : 10 кадров
Идентификатор кодека : V_MPEG4/ISO/AVC
Продолжительность : 1 ч. 34 м.
Битрейт : 1900 Кбит/сек
Ширина : 1024 пикселя
Высота : 554 пикселя
Соотношение сторон : 1,85:1
Режим частоты кадров : Постоянный
Частота кадров : 23,976 (24000/1001) кадра/сек
Цветовое пространство : YUV
Субдискретизация насыщенности : 4:2:0
Битовая глубина : 8 бит
Тип развёртки : Прогрессивная
Бит/(Пиксели*Кадры) : 0.140
Размер потока : 1,22 Гбайт (68%)
Библиотека кодирования : x264 core 146 r2538 121396c
Настройки программы : cabac=1 / ref=10 / deblock=1:-3:-3 / analyse=0x3:0x133 / me=umh / subme=11 / psy=1 / psy_rd=1.00:0.07 / mixed_ref=1 / me_range=48 / chroma_me=1 / trellis=2 / 8x8dct=1 / cqm=0 / deadzone=21,11 / fast_pskip=0 / chroma_qp_offset=-3 / threads=6 / lookahead_threads=1 / sliced_threads=0 / nr=0 / decimate=0 / interlaced=0 / bluray_compat=0 / constrained_intra=0 / bframes=10 / b_pyramid=2 / b_adapt=2 / b_bias=0 / direct=3 / weightb=1 / open_gop=0 / weightp=2 / keyint=240 / keyint_min=23 / scenecut=40 / intra_refresh=0 / rc_lookahead=40 / rc=2pass / mbtree=0 / bitrate=1900 / ratetol=1.0 / qcomp=0.60 / qpmin=0 / qpmax=69 / qpstep=4 / cplxblur=20.0 / qblur=0.5 / vbv_maxrate=50000 / vbv_bufsize=62500 / nal_hrd=none / filler=0 / ip_ratio=1.40 / pb_ratio=1.30 / aq=1:1.00
Язык : English
Default : Да
Forced : Нет

Аудио #1
Идентификатор : 2
Формат : AC-3
Формат/Информация : Audio Coding 3
Расширение режима : CM (complete main)
Параметр Endianness формата : Big
Идентификатор кодека : A_AC3
Продолжительность : 1 ч. 34 м.
Вид битрейта : Постоянный
Битрейт : 384 Кбит/сек
Каналы : 6 каналов
Расположение каналов : Front: L C R, Side: L R, LFE
Частота : 48,0 КГц
Частота кадров : 31,250 кадров/сек (1536 spf)
Метод сжатия : С потерями
Размер потока : 260 Мбайт (14%)
Заголовок : Профессиональный (многоголосый закадровый)
Язык : Russian
Default : Да
Forced : Нет

Аудио #2
Идентификатор : 3
Формат : AC-3
Формат/Информация : Audio Coding 3
Расширение режима : CM (complete main)
Параметр Endianness формата : Big
Идентификатор кодека : A_AC3
Продолжительность : 1 ч. 34 м.
Вид битрейта : Постоянный
Битрейт : 448 Кбит/сек
Каналы : 6 каналов
Расположение каналов : Front: L C R, Side: L R, LFE
Частота : 48,0 КГц
Частота кадров : 31,250 кадров/сек (1536 spf)
Метод сжатия : С потерями
Размер потока : 303 Мбайт (16%)
Заголовок : Original
Язык : English
Default : Нет
Forced : Нет

Текст
Идентификатор : 4
Формат : UTF-8
Идентификатор кодека : S_TEXT/UTF8
Идентификатор кодека/Информация : UTF-8 Plain Text
Заголовок : Full
Язык : English
Default : Да
Forced : Нет

Меню
00:00:00.000 : en:Chapter 1
00:04:02.492 : en:Chapter 2
00:07:55.642 : en:Chapter 3
00:10:50.567 : en:Chapter 4
00:15:34.183 : en:Chapter 5
00:18:46.042 : en:Chapter 6
00:21:33.918 : en:Chapter 7
00:25:23.105 : en:Chapter 8
00:31:35.435 : en:Chapter 9
00:36:17.717 : en:Chapter 10
00:41:33.074 : en:Chapter 11
00:45:02.074 : en:Chapter 12
00:50:21.185 : en:Chapter 13
00:53:01.178 : en:Chapter 14
00:55:47.844 : en:Chapter 15
00:59:14.509 : en:Chapter 16
01:03:24.217 : en:Chapter 17
01:06:02.750 : en:Chapter 18
01:09:37.507 : en:Chapter 19
01:12:45.361 : en:Chapter 20
01:17:21.971 : en:Chapter 21
01:20:29.825 : en:Chapter 22
01:25:38.216 : en:Chapter 23
01:27:43.592 : en:Chapter 24


_________________
Проголосуй за трекер Открытый торрент трекер - RUS-MEDIA.ORG

Проголосуй Открытый торрент трекер - RUS-MEDIA.ORG



реклама партнёра


Вернуться к началу
 Профиль Отправить личное сообщение  
 
   Похожие торренты   Автор   Торрент   Размер 
В этой теме нет новых непрочитанных сообщений. Уилсон / Wilson [комедия, 2017] BDRip 720p, Mvo

salma3

92 | 10

3.45 ГБ

В этой теме нет новых непрочитанных сообщений. Уилсон / Wilson [комедия, 2017] BDRip 1080p, Mvo

salma3

327 | 91

6.67 ГБ

В этой теме нет новых непрочитанных сообщений. Уилсон / Wilson [комедия, 2017] HDRip, Mvo

salma3

1500 | 196

1.37 ГБ

В этой теме нет новых непрочитанных сообщений. Любовь Джульетты / Juliet in Love (Уилсон Йип / Wilson Yip) [2000г., Гонконг, драма, мелодрама, DVDRip] VO

Alfredovich

2 | 2

1.37 ГБ

В этой теме нет новых непрочитанных сообщений. Пугало / Scarecrow (Шелдон Уилсон) [Ужасы, фантастика, 2013] BDRip 1080p, Mvo

Dracon

33 | 2

6.67 ГБ

В этой теме нет новых непрочитанных сообщений. Пугало / Scarecrow (Шелдон Уилсон) [Ужасы, фантастика, 2013] BDRip 720p, Mvo

Dracon

23 | 4

4.48 ГБ

В этой теме нет новых непрочитанных сообщений. Навес / Canopy (Аарон Уилсон) [драма, приключения, военный, 2013] BDRip 720p, avo

Dracon

30 | 7

3.52 ГБ


Начать новую тему Ответить на тему  [ 1 сообщение ] 




Для Мосгорсуда, Роскомнадзора и рекламодателей:: mosgorsud-torrent[собачка]yandex.ru