COVID-19 - Последняя информация о коронавирусе на сайте Минздрава




Торрент файл
скачать торрент магнет ссылка Добавлен: 27 июл 2017, 21:07
Размер: 1.45 ГБ
Сидеров: 1669
Личеров: 236
Статус: (salma3)
Автор

СообщениеДобавлено: 27 июл 2017, 21:07 

Не в сети
Супермодератор
Аватара пользователя
Дата регистрации:
15 фев 2012, 16:44
Возраст: 30
Спасибо: 8264 / 2148
Сообщения: 96303
Год выхода: 2017
Жанр: фэнтези, боевик, драма, приключения
Режиссер: Гай Ричи

В ролях: Чарли Ханнэм, Астрид Берже-Фрисби, Джуд Лоу, Джимон Хонсу, Эрик Бана, Эйдан Гиллен, Фредди Фокс, Крэйг МакГинли, Том Ву, Кингсли Бен-Адир

О фильме: Молодой Артур живёт на задворках Лондиниума вместе со своей бандой. Он и понятия не имел о своём королевском происхождении, пока однажды не взял в руки меч Эскалибур. Меч начинает менять Артура. В результате он присоединяется к сопротивлению и таинственной молодой девушке по имени Гвиневра. Ему предстоит научиться понимать магическое оружие, которым он овладел, столкнуться со своими собственными демонами и объединить народ в борьбе против диктатора Вортигерна, убившего его родителей и завладевшего короной.



Выпущено: США / Safehouse Pictures, Warner Bros. Pictures
Продолжительность:02:06:12
Перевод: Профессиональный (полное дублирование)[iTunes]

Файл
Качество: BDRip-AVC
Видео: 960x400 (2.40:1), 23.976 fps, AVC MPEG-4 (H.264), ~1264 kbps, 0.137 bit/pixel
Аудио: 48 kHz, AC3 Dolby Digital, 3/2 (L,C,R,l,r) + LFE ch, ~384 kbps

Format : Matroska
Format version : Version 2
File size : 1.45 GiB
Duration : 2 h 6 min
Overall bit rate : 1 649 kb/s
Encoded date : UTC 2017-07-26 15:32:51
Writing application : mkvmerge v4.8.0 ('I Got The...') сборка от May 24 2011 03:12:58
Writing library : libebml v1.2.0 + libmatroska v1.1.0

Video
ID : 1
Format : AVC
Format/Info : Advanced Video Codec
Format profile :
Format settings, CABAC : Yes
Format settings, RefFrames : 10 frames
Codec ID : V_MPEG4/ISO/AVC
Duration : 2 h 6 min
Bit rate : 1 264 kb/s
Width : 960 pixels
Height : 400 pixels
Display aspect ratio : 2.40:1
Frame rate mode : Constant
Frame rate : 23.976 (24000/1001) FPS
Color space : YUV
Chroma subsampling : 4:2:0
Bit depth : 8 bits
Scan type : Progressive
Bits/(Pixel*Frame) : 0.137
Stream size : 1.09 GiB (75%)
Writing library : x264 core 150 r2833kMod df79067
Encoding settings : cabac=1 / ref=10 / deblock=1:-3:-3 / analyse=0x3:0x113 / me=umh / subme=10 / psy=1 / fade_compensate=0.00 / psy_rd=1.00:0.00 / mixed_ref=1 / me_range=32 / chroma_me=1 / trellis=2 / 8x8dct=1 / cqm=0 / deadzone=21,11 / fast_pskip=0 / chroma_qp_offset=-2 / threads=12 / lookahead_threads=3 / sliced_threads=0 / nr=0 / decimate=0 / interlaced=0 / bluray_compat=0 / constrained_intra=0 / bframes=11 / b_pyramid=2 / b_adapt=2 / b_bias=0 / direct=1 / weightb=1 / open_gop=0 / weightp=2 / keyint=240 / keyint_min=23 / scenecut=40 / intra_refresh=0 / rc_lookahead=60 / rc=2pass / mbtree=0 / bitrate=1264 / ratetol=1.0 / qcomp=0.60 / qpmin=0 / qpmax=69 / qpstep=4 / cplxblur=20.0 / qblur=0.5 / vbv_maxrate=50000 / vbv_bufsize=62500 / nal_hrd=none / filler=0 / ip_ratio=1.40 / pb_ratio=1.30 / aq=1:1.00
Default : Yes
Forced : No

Audio
ID : 2
Format : AC-3
Format/Info : Audio Coding 3
Format settings, Endianness : Big
Codec ID : A_AC3
Duration : 2 h 6 min
Bit rate mode : Constant
Bit rate : 384 kb/s
Channel(s) : 6 channels
Channel positions : Front: L C R, Side: L R, LFE
Sampling rate : 48.0 kHz
Frame rate : 31.250 FPS (1536 SPF)
Bit depth : 16 bits
Compression mode : Lossy
Stream size : 347 MiB (23%)
Title : iTunes
Language : Russian
Service kind : Complete Main
Default : Yes
Forced : No

Text
ID : 3
Format : UTF-8
Codec ID : S_TEXT/UTF8
Codec ID/Info : UTF-8 Plain Text
Title : Forced
Language : Russian
Default : Yes
Forced : No




_________________
Проголосуй за трекер Открытый торрент трекер - RUS-MEDIA.ORG

Проголосуй Открытый торрент трекер - RUS-MEDIA.ORG


Скачать книги и аудио книги через торрент


Вернуться к началу
 Профиль Отправить личное сообщение  
 
   Похожие торренты   Автор   Торрент   Размер 
В этой теме нет новых непрочитанных сообщений. Меч короля Артура / King Arthur: Legend of the Sword [Фэнтези, Боевик, Драма, Приключения, 2017] BDRip 1080p, Dub [3D-Video] [Лицензия]

salma3

390 | 280

15.82 ГБ

В этой теме нет новых непрочитанных сообщений. Меч короля Артура / King Arthur: Legend of the Sword [Фэнтези, боевик, драма, приключения, 2017] DVD5, Dub

salma3

88 | 18

4.38 ГБ

В этой теме нет новых непрочитанных сообщений. Меч короля Артура / King Arthur: Legend of the Sword [Фэнтези, боевик, драма, 2017] DVD9, Dub

salma3

0 | 0

7.81 ГБ

В этой теме нет новых непрочитанных сообщений. Меч короля Артура / King Arthur: Legend of the Sword [фэнтези, боевик, драма, 2017] BDRip, Avo [Живов]

salma3

36 | 20

2.07 ГБ

В этой теме нет новых непрочитанных сообщений. Меч короля Артура / King Arthur: Legend of the Sword [Фэнтези, боевик, драма, 2017] BDRemux 1080p, Dub [Лицензия]

salma3

0 | 0

37.52 ГБ

В этой теме нет новых непрочитанных сообщений. Рождённый стать королем / The Kid Who Would Be King [Фэнтези, боевик, приключения, 2019] BDRip, Dub [iTunes]

salma3

0 | 0

2.13 ГБ

В этой теме нет новых непрочитанных сообщений. Рождённый стать королем / The Kid Who Would Be King [Фэнтези, боевик, приключения, 2019] BDRip, Dub [iTunes]

salma3

110 | 32

1.41 ГБ


Начать новую тему Ответить на тему  [ 1 сообщение ] 




Для Мосгорсуда, Роскомнадзора и рекламодателей:: rstracker[собака]yandex.ru
cron