Торрент файл
скачать торрент магнет ссылка Добавлен: 20 июл 2017, 20:34
Размер: 4.57 ГБ
Сидеров: 18
Личеров: 10
Статус: (salma3)
Автор

СообщениеДобавлено: 20 июл 2017, 20:34 

Не в сети
Супермодератор
Аватара пользователя
Дата регистрации:
15 фев 2012, 16:44
Возраст: 28
Спасибо: 6925 / 2147
Сообщения: 52870
Год выпуска: 1986
Страна: США
Жанр: комедия
Перевод: Профессиональный (дублированный) РТР + Профессиональный (многоголосый, закадровый) Петербург - Пятый канал + Профессиональный (многоголосый, закадровый) ОРТ/iTunes Russia + Авторский (одноголосый, закадровый) А.Михалёв + Любительский (одноголосый, закадровый) А.Чуев
Субтитры: английские (full)
Продолжительность: 01:44:06
Режиссер: Джеф Кэнью

В ролях: Берт Ланкастер (Harry Doyle), Кирк Дуглас (Archie Long), Чарльз Дёрнинг (Deke Yablonski), Алексис Смит (Belle), Дэна Карви (Richie Evans), Дарлэнн Флюгел (Skye), Илай Уоллак (Leon B. Little), Монти Эш (Vince), Билли Барти (Philly), Симми Боу (Schultz), Дарлен Конли (Gladys Ripps), Нэйтан Дэвис (Jimmy Ellis)

Описание:
Два грабителя, только что вышедших из тюрьмы после 30 лет заключения, Гарри и Арчи попадают в новый Лос-Анджелес, совершенно им не знакомый. Попробовав несколько честных способов зарабатывания денег, они все-таки решают заняться тем, что получается у них лучше всего - воровством в поездах. И надо же такому случиться - они выходят на дело в том самом поезде, за ограбление которого их посадили 30 лет назад.



Качество: BDRip-AVC
Формат: MKV
Видео: AVC, 1024x438 (2.35:1), 4876 kbps, 23,976 fps, 0,453 bpp
Аудио №1: русский / AC3 / 2.0 / 48 kHz / 192 kbps / Дубляж, РТР
Аудио №2: русский / AC3 / 2.0 / 48 kHz / 192 kbps / Многоголосый закадровый, Петербург - Пятый канал
Аудио №3: русский / AC3 / 2.0 / 48 kHz / 192 kbps / Многоголосый закадровый, ОРТ/iTunes Russia
Аудио №4: русский / AC3 / 2.0 / 48 kHz / 192 kbps / Авторский, А.Михалёв
Аудио №5: русский / AC3 / 2.0 / 48 kHz / 192 kbps / Любительский, А.Чуев (по переводу Марины Полек)
Аудио №6: английский / AC3 / 2.0 / 48 kHz / 448 kbps / Original
Навигация по главам: есть


Релиз от:


x264 [info]: frame I:1299 Avg QP:16.77 size: 93270
x264 [info]: frame P:27098 Avg QP:19.06 size: 41387
x264 [info]: frame B:121344 Avg QP:20.56 size: 21092
General
Unique ID : 188814971943000299140664805195915261182 (0x8E0C70DAFAD1B8B2838ECE8F92ECF4FE)
Complete name : D:downloadTough Guys.1986.BDRip-AVC by schultz R.G.Resident.mkv
Format : Matroska
Format version : Version 4 / Version 2
File size : 4.57 GiB
Duration : 1 h 44 min
Overall bit rate : 6 281 kb/s
Encoded date : UTC 2017-07-20 02:38:00
Writing application : mkvmerge v8.9.0 ('Father Daughter') 64bit
Writing library : libebml v1.3.3 + libmatroska v1.4.4
Video
ID : 1
Format : AVC
Format/Info : Advanced Video Codec
Format profile : High@L4.1
Format settings, CABAC : Yes
Format settings, ReFrames : 11 frames
Codec ID : V_MPEG4/ISO/AVC
Duration : 1 h 44 min
Bit rate : 4 876 kb/s
Width : 1 024 pixels
Height : 438 pixels
Display aspect ratio : 2.35:1
Frame rate mode : Constant
Frame rate : 23.976 (23976/1000) FPS
Color space : YUV
Chroma subsampling : 4:2:0
Bit depth : 8 bits
Scan type : Progressive
Bits/(Pixel*Frame) : 0.453
Stream size : 3.54 GiB (78%)
Writing library : x264 core 146 r2538 121396c
Encoding settings : cabac=1 / ref=11 / deblock=1:-3:-3 / analyse=0x3:0x113 / me=umh / subme=11 / psy=1 / psy_rd=1.00:0.15 / mixed_ref=1 / me_range=48 / chroma_me=1 / trellis=2 / 8x8dct=1 / cqm=0 / deadzone=21,11 / fast_pskip=0 / chroma_qp_offset=-3 / threads=12 / lookahead_threads=3 / sliced_threads=0 / nr=0 / decimate=0 / interlaced=0 / bluray_compat=0 / constrained_intra=0 / bframes=11 / b_pyramid=2 / b_adapt=2 / b_bias=0 / direct=3 / weightb=1 / open_gop=0 / weightp=2 / keyint=240 / keyint_min=23 / scenecut=40 / intra_refresh=0 / rc_lookahead=40 / rc=2pass / mbtree=0 / bitrate=4876 / ratetol=1.0 / qcomp=0.60 / qpmin=0 / qpmax=69 / qpstep=4 / cplxblur=20.0 / qblur=0.5 / vbv_maxrate=50000 / vbv_bufsize=62500 / nal_hrd=none / filler=0 / ip_ratio=1.40 / pb_ratio=1.30 / aq=1:1.00
Language : English
Default : Yes
Forced : No
Color range : Limited
Color primaries : BT.709
Transfer characteristics : BT.709
Matrix coefficients : BT.709
Audio #1
ID : 2
Format : AC-3
Format/Info : Audio Coding 3
Mode extension : CM (complete main)
Format settings, Endianness : Big
Codec ID : A_AC3
Duration : 1 h 44 min
Bit rate mode : Constant
Bit rate : 192 kb/s
Channel(s) : 2 channels
Channel positions : Front: L R
Sampling rate : 48.0 kHz
Frame rate : 31.250 FPS (1536 spf)
Compression mode : Lossy
Stream size : 143 MiB (3%)
Title : Дубляж РТР
Language : Russian
Default : Yes
Forced : No
Audio #2
ID : 3
Format : AC-3
Format/Info : Audio Coding 3
Mode extension : CM (complete main)
Format settings, Endianness : Big
Codec ID : A_AC3
Duration : 1 h 44 min
Bit rate mode : Constant
Bit rate : 192 kb/s
Channel(s) : 2 channels
Channel positions : Front: L R
Sampling rate : 48.0 kHz
Frame rate : 31.250 FPS (1536 spf)
Compression mode : Lossy
Stream size : 143 MiB (3%)
Title : MVO Peterburg 5 канал
Language : Russian
Default : No
Forced : No
Audio #3
ID : 4
Format : AC-3
Format/Info : Audio Coding 3
Mode extension : CM (complete main)
Format settings, Endianness : Big
Codec ID : A_AC3
Duration : 1 h 44 min
Bit rate mode : Constant
Bit rate : 192 kb/s
Channel(s) : 2 channels
Channel positions : Front: L R
Sampling rate : 48.0 kHz
Frame rate : 31.250 FPS (1536 spf)
Compression mode : Lossy
Stream size : 143 MiB (3%)
Title : MVO OPT (iTunes Russia)
Language : Russian
Default : No
Forced : No
Audio #4
ID : 5
Format : AC-3
Format/Info : Audio Coding 3
Mode extension : CM (complete main)
Format settings, Endianness : Big
Codec ID : A_AC3
Duration : 1 h 44 min
Bit rate mode : Constant
Bit rate : 192 kb/s
Channel(s) : 2 channels
Channel positions : Front: L R
Sampling rate : 48.0 kHz
Frame rate : 31.250 FPS (1536 spf)
Compression mode : Lossy
Stream size : 143 MiB (3%)
Title : VO А.Михалев
Language : Russian
Default : No
Forced : No
Audio #5
ID : 6
Format : AC-3
Format/Info : Audio Coding 3
Mode extension : CM (complete main)
Format settings, Endianness : Big
Codec ID : A_AC3
Duration : 1 h 44 min
Bit rate mode : Constant
Bit rate : 192 kb/s
Channel(s) : 2 channels
Channel positions : Front: L R
Sampling rate : 48.0 kHz
Frame rate : 31.250 FPS (1536 spf)
Compression mode : Lossy
Stream size : 143 MiB (3%)
Title : VO А.Чуев
Language : Russian
Default : No
Forced : No
Audio #6
ID : 7
Format : AC-3
Format/Info : Audio Coding 3
Mode extension : CM (complete main)
Format settings, Endianness : Big
Codec ID : A_AC3
Duration : 1 h 44 min
Bit rate mode : Constant
Bit rate : 448 kb/s
Channel(s) : 2 channels
Channel positions : Front: L R
Sampling rate : 48.0 kHz
Frame rate : 31.250 FPS (1536 spf)
Compression mode : Lossy
Stream size : 334 MiB (7%)
Title : Original
Language : English
Default : No
Forced : No
Text
ID : 8
Format : UTF-8
Codec ID : S_TEXT/UTF8
Codec ID/Info : UTF-8 Plain Text
Duration : 1 h 36 min
Bit rate : 65 b/s
Count of elements : 1272
Stream size : 46.3 KiB (0%)
Title : full
Language : English
Default : No
Forced : No
Menu
00:00:00.000 : en:00:00:00.000
00:10:56.406 : en:00:10:56.406
00:24:40.354 : en:00:24:40.354
00:41:57.598 : en:00:41:57.598
00:57:59.476 : en:00:57:59.476
01:11:05.845 : en:01:11:05.845
01:22:17.891 : en:01:22:17.891
01:33:27.185 : en:01:33:27.185


_________________
Проголосуй за трекер Открытый торрент трекер - RUS-MEDIA.ORG

Проголосуй Открытый торрент трекер - RUS-MEDIA.ORG



реклама партнёра


Вернуться к началу
 Профиль Отправить личное сообщение  
 
   Похожие торренты   Автор   Торрент   Размер 
В этой теме нет новых непрочитанных сообщений. Крутые парни / Крутые ребята / Крутые мужики / Tough Guys [криминал, комедия, 1986] WEB-DL 720p, Dub+Mvo+Sub

salma3

4 | 1

3.36 ГБ

В этой теме нет новых непрочитанных сообщений. Крутые мужики / Tough Guys [комедия, 1986] BDRip 720p, Mvo

salma3

36 | 13

7.3 ГБ

В этой теме нет новых непрочитанных сообщений. Крутые мужики / Tough Guys [комедия, 1986] BDRip 1080p, Mvo

salma3

10 | 4

16.6 ГБ

В этой теме нет новых непрочитанных сообщений. Крутые парни / Tough Guys [комедия, 1986] WEB-DLRip, Dub

salma3

146 | 22

1.45 ГБ

В этой теме нет новых непрочитанных сообщений. Крутые ребята не танцуют / Tough Guys Don't Dance [триллер, драма, детектив, 1987] HDTV 1080i, Dvo

salma3

18 | 6

5.03 ГБ

В этой теме нет новых непрочитанных сообщений. Черные тигры / Хорошие парни носят черное / Крутые парни ходят в черном / Good Guys Wear Black [боевик, 1978] BDRip, Mvo

salma3

0 | 1

1.46 ГБ

В этой теме нет новых непрочитанных сообщений. Крутые кексы / High School [комедия, 2010] BDRip 720p, Dub

salma3

113 | 41

5.98 ГБ


Начать новую тему Ответить на тему  [ 1 сообщение ] 




Для Мосгорсуда, Роскомнадзора и рекламодателей:: mosgorsud-torrent[собачка]yandex.ru
cron