Торрент файл
скачать торрент магнет ссылка Добавлен: 20 июл 2017, 20:22
Размер: 744.42 МБ
Сидеров: 38
Личеров: 13
Статус: (salma3)
Автор

СообщениеДобавлено: 20 июл 2017, 20:22 

Не в сети
Супермодератор
Аватара пользователя
Дата регистрации:
15 фев 2012, 16:44
Возраст: 28
Спасибо: 6644 / 2146
Сообщения: 45843
Год выхода: 1982
Жанр: ужасы, фантастика
Режиссер: Гарри Бромли Девенпорт

В ролях: Филип Сайер, Бернис Стиджерс, Дэнни Брайнин, Мэриам д’Або, Саймон Нэш, Питер Манделл, Дэвид Карди, Анна Уинг, Роберт Файф, Кэтерин Бест

О фильме:
Папу маленького мальчика на его глазах похитили инопланетяне, а мама, не поверив рассказанной истории, решила, что муж просто ушел от нее. С тех пор прошло три года, у мамы появился новый сожитель, но парень все еще верил, что настоящий папа вернется. И он вернулся, будучи, правда, уже не таким, как раньше…



Страна: Великобритания
Продолжительность: 01:23:30
Перевод: Авторский (одноголосый закадровый) [Михалёв]

Файл
Кодек: AVC
Качество: DVDRip-AVC
Видео: 708x460@860x460, 1173 kbps, 23,976 fps, 0,150 Bits/(Pixel*Frame)
Звук: AAC, 48 kHz, 2 ch, 72 kbps

Общее
Unique ID : 170847357863892299241913011408251621075 (0x8088011610E8C309AD3B97F5C6BB8ED3)
Complete name : F:XTRO.1982.HDRip-AVC.MegaPeer.mkv
Format : Matroska
Format version : Version 2
File size : 744 Мбайт
Duration : 1 ч. 23 м.
Overall bit rate : 1246 Кбит/сек
Encoded date : UTC 2017-07-19 16:57:18
Writing application : mkvmerge v13.0.0 ('The Juggler') 64bit
Writing library : libebml v1.3.4 + libmatroska v1.4.5
Видео
ID : 1
Format : AVC
Format/Info : Advanced Video Codec
Format profile : High@L4.1
Format settings, CABAC : Да
Format settings, ReFrames : 10 кадров
Codec ID : V_MPEG4/ISO/AVC
Duration : 1 ч. 23 м.
Bit rate : 1173 Кбит/сек
Width : 708 пикселей
Height : 460 пикселей
Display aspect ratio : 1,85:1
Original display aspect ratio : 1,85:1
Frame rate mode : Постоянный
Frame rate : 23,976 (24000/1001) кадра/сек
Color space : YUV
Chroma subsampling : 4:2:0
Bit depth : 8 бит
Scan type : Прогрессивная
Bits/(Pixel*Frame) : 0.150
Stream size : 700 Мбайт (94%)
Writing library : x264 core 152 r2851 ba24899
Encoding settings : cabac=1 / ref=10 / deblock=1:-2:-2 / analyse=0x3:0x133 / me=umh / subme=11 / psy=1 / psy_rd=1.00:0.12 / mixed_ref=1 / me_range=32 / chroma_me=1 / trellis=2 / 8x8dct=1 / cqm=0 / deadzone=21,11 / fast_pskip=0 / chroma_qp_offset=-3 / threads=12 / lookahead_threads=3 / sliced_threads=0 / nr=0 / decimate=0 / interlaced=0 / bluray_compat=0 / constrained_intra=0 / bframes=12 / b_pyramid=2 / b_adapt=2 / b_bias=0 / direct=3 / weightb=1 / open_gop=0 / weightp=2 / keyint=230 / keyint_min=22 / scenecut=0 / intra_refresh=0 / rc_lookahead=60 / rc=2pass / mbtree=1 / bitrate=1173 / ratetol=1.0 / qcomp=0.60 / qpmin=0 / qpmax=51 / qpstep=4 / cplxblur=15.0 / qblur=0.5 / vbv_maxrate=50000 / vbv_bufsize=62500 / nal_hrd=none / filler=0 / ip_ratio=1.40 / aq=2:1.00
Default : Да
Forced : Нет
Аудио
ID : 2
Format : AAC
Format/Info : Advanced Audio Codec
Format profile : HE-AAC / LC
Codec ID : A_AAC
Duration : 1 ч. 23 м.
Bit rate : 72,0 Кбит/сек
Channel(s) : 2 канала
Channel positions : Front: L R
Sampling rate : 48,0 КГц / 24,0 КГц
Frame rate : 23,438 кадра/сек (1024 spf)
Compression mode : С потерями
Delay relative to video : 31 мс.
Stream size : 43,0 Мбайт (6%)
Default : Да
Forced : Нет

Релиз:


_________________
Проголосуй за трекер Открытый торрент трекер - RUS-MEDIA.ORG

Проголосуй Открытый торрент трекер - RUS-MEDIA.ORG



реклама партнёра


Вернуться к началу
 Профиль Отправить личное сообщение  
 
   Похожие торренты   Автор   Торрент   Размер 
В этой теме нет новых непрочитанных сообщений. Экстро / Xtro [ужасы, фантастика, 1982] BDRip-AVC, Avo

salma3

5 | 114

2.67 ГБ

В этой теме нет новых непрочитанных сообщений. Экстро / Xtro [ужасы, фантастика, 1982] BDRemux 1080р, Avo

salma3

35 | 8

15.93 ГБ

В этой теме нет новых непрочитанных сообщений. Крысы / Deadly Eyes [Ужасы, фантастика, 1982] BDRip-AVC, Avo

salma3

29 | 12

744.64 МБ

В этой теме нет новых непрочитанных сообщений. Крысы / Deadly Eyes [Ужасы, фантастика, 1982] HDRip, Avo

salma3

2 | 1

744.63 МБ

В этой теме нет новых непрочитанных сообщений. Нечто / The Thing [ужасы, фантастика, триллер, 1982] BDRip 1080p, Mvo+Sub [лицензия]

salma3

67 | 6

4.37 ГБ

В этой теме нет новых непрочитанных сообщений. Охота на индюшек / Turkey Shoot [ужасы, фантастика, триллер, драма, 1982] BDRip 720p, Dvo+Avo+Sub

salma3

20 | 5

3.31 ГБ

В этой теме нет новых непрочитанных сообщений. Охота на индюшек / Turkey Shoot [ужасы, фантастика, триллер, драма, 1982] BDRip 1080p, Dvo+Avo+Sub

salma3

23 | 2

8.45 ГБ


Начать новую тему Ответить на тему  [ 1 сообщение ] 




Для Мосгорсуда, Роскомнадзора и рекламодателей:: mosgorsud-torrent[собачка]yandex.ru