Торрент файл
скачать торрент магнет ссылка Добавлен: 20 июл 2017, 09:55
Размер: 1.43 ГБ
Сидеров: 194
Личеров: 37
Статус: (salma3)
Автор

СообщениеДобавлено: 20 июл 2017, 09:55 

Не в сети
Супермодератор
Аватара пользователя
Дата регистрации:
15 фев 2012, 16:44
Возраст: 28
Спасибо: 7204 / 2147
Сообщения: 65240
Год выпуска: 2016
Страна: США
Жанр: ужасы, фантастика, триллер, драма


Перевод: Дубляж - [iTunes]
Субтитры: русские (Full), английские (Full), английские (SDH)
Продолжительность: 01:25:35

Режиссер: Генри Джуст , Эриель Шульман
В ролях: София Блэк-Д’Элиа (Emma Drakeford), Анали Типтон (Stacey Drakeford), Трэвис Тоуп (Evan Klein), Майкл Келли (Michael Drakeford), Машин Ган Келли (CJ), Джон Котрэн (Mr. Toomey), Стоуни Вэстмолэнд (Bill), Линзи Грэй (Gracie Lemay), Джудиэнн Элдер (Mrs. Toomey), Филип Лэйбс (Gangly Kid), Брианна Хоуи (Tara Dannelly), Алекса Фишер (CDC Investigator)

Описание:
Сёстры Эмма и Стейси с отцом недавно переехали в новый город, и девушки теперь ходят в новую школу. По радио и телевидению всё время твердят про какой-то китайский вирус, у родителей, вроде бы, не ладятся отношения (мама застряла в другом городе и не возвращается), подруга Эммы серьёзно заболела, а сестёр больше волнуют интересные парни в новой школе. Когда отец уезжает встречать маму из аэропорта, в городе объявляют комендантский час, но это не останавливает девушек от посещения вечеринки.




Качество: BDRip-AVC
Формат: MKV
Видео: AVC, 1024x428 (2.40:1), 1573 kbps, 24 fps, 0,150 bpp
Аудио №1: русский / AC3 / 5.1 / 48 kHz / 384 kbps / |Дубляж|
Аудио №2: английский / AC3 / 5.1 / 48 kHz / 448 kbps /
Навигация по главам: есть
Сэмпл


Релиз от:


General
Unique ID : 241687479859368122771623779557317186583 (0xB5D350C24775A9AA9E4D44BAB6769417)
Complete name : E:Viral.2016.BDRip.AVC.R.G.Resident.mkv
Format : Matroska
Format version : Version 4 / Version 2
File size : 1.43 GiB
Duration : 1 h 25 min
Overall bit rate : 2 400 kb/s
Movie name : Вирус / Viral (2016) BDRip-AVC от R.G. Resident
Encoded date : UTC 2017-07-19 16:12:45
Writing application : mkvmerge v13.0.0 ('The Juggler') 64bit
Writing library : libebml v1.3.4 + libmatroska v1.4.5
Cover : Yes
Attachments : cover.jpg

Video
ID : 1
Format : AVC
Format/Info : Advanced Video Codec
Format profile : High@L4.1
Format settings, CABAC : Yes
Format settings, ReFrames : 12 frames
Codec ID : V_MPEG4/ISO/AVC
Duration : 1 h 25 min
Bit rate : 1 573 kb/s
Width : 1 024 pixels
Height : 428 pixels
Display aspect ratio : 2.40:1
Frame rate mode : Constant
Frame rate : 24.000 FPS
Color space : YUV
Chroma subsampling : 4:2:0
Bit depth : 8 bits
Scan type : Progressive
Bits/(Pixel*Frame) : 0.150
Stream size : 959 MiB (65%)
Title : -Lexx-
Writing library : x264 core 152 r2851kMod ba24899
Encoding settings : cabac=1 / ref=12 / deblock=1:-3:-3 / analyse=0x3:0x113 / me=umh / subme=11 / psy=1 / fade_compensate=0.00 / psy_rd=1.00:0.15 / mixed_ref=1 / me_range=48 / chroma_me=1 / trellis=2 / 8x8dct=1 / cqm=0 / deadzone=21,11 / fast_pskip=0 / chroma_qp_offset=-3 / threads=12 / lookahead_threads=3 / sliced_threads=0 / nr=0 / decimate=0 / interlaced=0 / bluray_compat=0 / constrained_intra=0 / bframes=11 / b_pyramid=2 / b_adapt=2 / b_bias=0 / direct=3 / weightb=1 / open_gop=0 / weightp=2 / keyint=240 / keyint_min=24 / scenecut=40 / intra_refresh=0 / rc_lookahead=40 / rc=2pass / mbtree=0 / bitrate=1573 / ratetol=1.0 / qcomp=0.60 / qpmin=0 / qpmax=69 / qpstep=4 / cplxblur=20.0 / qblur=0.5 / vbv_maxrate=50000 / vbv_bufsize=62500 / nal_hrd=none / filler=0 / ip_ratio=1.40 / pb_ratio=1.30 / aq=1:1.00
Language : English
Default : Yes
Forced : No
Color range : Limited
Color primaries : BT.709
Transfer characteristics : BT.709
Matrix coefficients : BT.709

Audio #1
ID : 2
Format : AC-3
Format/Info : Audio Coding 3
Mode extension : CM (complete main)
Format settings, Endianness : Big
Codec ID : A_AC3
Duration : 1 h 25 min
Bit rate mode : Constant
Bit rate : 384 kb/s
Channel(s) : 6 channels
Channel positions : Front: L C R, Side: L R, LFE
Sampling rate : 48.0 kHz
Frame rate : 31.250 FPS (1536 spf)
Compression mode : Lossy
Stream size : 235 MiB (16%)
Title : DUB | iTunes
Language : Russian
Default : Yes
Forced : No

Audio #2
ID : 3
Format : AC-3
Format/Info : Audio Coding 3
Mode extension : CM (complete main)
Format settings, Endianness : Big
Codec ID : A_AC3
Duration : 1 h 25 min
Bit rate mode : Constant
Bit rate : 448 kb/s
Channel(s) : 6 channels
Channel positions : Front: L C R, Side: L R, LFE
Sampling rate : 48.0 kHz
Frame rate : 31.250 FPS (1536 spf)
Compression mode : Lossy
Stream size : 274 MiB (19%)
Title : Original
Language : English
Default : No
Forced : No

Text #1
ID : 4
Format : UTF-8
Codec ID : S_TEXT/UTF8
Codec ID/Info : UTF-8 Plain Text
Duration : 1 h 19 min
Bit rate : 61 b/s
Count of elements : 886
Stream size : 35.8 KiB (0%)
Title : Full
Language : Russian
Default : No
Forced : No

Text #2
ID : 5
Format : UTF-8
Codec ID : S_TEXT/UTF8
Codec ID/Info : UTF-8 Plain Text
Duration : 1 h 20 min
Bit rate : 43 b/s
Count of elements : 1008
Stream size : 25.5 KiB (0%)
Title : Full
Language : English
Default : No
Forced : No

Text #3
ID : 6
Format : UTF-8
Codec ID : S_TEXT/UTF8
Codec ID/Info : UTF-8 Plain Text
Duration : 1 h 21 min
Bit rate : 52 b/s
Count of elements : 919
Stream size : 31.1 KiB (0%)
Title : SDH
Language : English
Default : No
Forced : No

Menu
00:00:00.000 : :00:00:00.000
00:01:48.792 : :00:01:48.792
00:07:45.250 : :00:07:45.250
00:12:19.792 : :00:12:19.792
00:16:31.875 : :00:16:31.875
00:20:56.917 : :00:20:56.917
00:25:02.708 : :00:25:02.708
00:28:25.500 : :00:28:25.500
00:33:02.458 : :00:33:02.458
00:37:02.000 : :00:37:02.000
00:42:29.375 : :00:42:29.375
00:47:55.458 : :00:47:55.458
00:54:00.667 : :00:54:00.667
01:00:09.042 : :01:00:09.042
01:05:32.500 : :01:05:32.500
01:10:52.417 : :01:10:52.417
01:16:38.625 : :01:16:38.625
01:21:46.667 : :01:21:46.667



_________________
Проголосуй за трекер Открытый торрент трекер - RUS-MEDIA.ORG

Проголосуй Открытый торрент трекер - RUS-MEDIA.ORG


Вернуться к началу
 Профиль Отправить личное сообщение  
 
   Похожие торренты   Автор   Торрент   Размер 
В этой теме нет новых непрочитанных сообщений. Вирус / Viral [Ужасы, фантастика, триллер, драма, 2016] WEBDLRip-AVC, Dub [iTunes]

salma3

523 | 65

1.46 ГБ

В этой теме нет новых непрочитанных сообщений. Вирус / Viral [ужасы, фантастика, триллер, драма, 2016] WEB-DLRip, Dub [iTunes]

salma3

736 | 118

1.45 ГБ

В этой теме нет новых непрочитанных сообщений. Вирус / Viral [Ужасы, фантастика, триллер, драма, 2016] WEB-DL 1080p, Dub [iTunes]

salma3

575 | 136

3.14 ГБ

В этой теме нет новых непрочитанных сообщений. Вирус / Viral [ужасы, фантастика, триллер, драма, 2016] WEB-DLRip, Mvo

salma3

1471 | 94

1.36 ГБ

В этой теме нет новых непрочитанных сообщений. Вирус / Viral (2016) WEB-DLRip от MegaPeer | iTunes

marya111

225 | 32

745.87 МБ

В этой теме нет новых непрочитанных сообщений. Морган / Morgan (ужасы, фантастика, триллер, детектив, 2016) BDRip 1080p от New-Team | iTunes

marya111

1995 | 272

8.91 ГБ

В этой теме нет новых непрочитанных сообщений. Морган / Morgan ( ужасы, фантастика, триллер, детектив, 2016) BDRip 720p от HELLYWOOD | iTunes

marya111

705 | 92

3.69 ГБ


Начать новую тему Ответить на тему  [ 1 сообщение ] 




Для Мосгорсуда, Роскомнадзора и рекламодателей:: mosgorsud-torrent[собачка]yandex.ru
cron