Торрент файл
скачать торрент магнет ссылка Добавлен: 18 июл 2017, 22:59
Размер: 2.89 ГБ
Сидеров: 0
Личеров: 0
Статус: (salma3)
Автор

СообщениеДобавлено: 18 июл 2017, 22:59 

Не в сети
Супермодератор
Аватара пользователя
Дата регистрации:
15 фев 2012, 16:44
Возраст: 28
Спасибо: 6642 / 2146
Сообщения: 45664
Год выхода: 2001
Жанр: триллер, драма, мелодрама
Режиссер: Йонас МакКорд

В ролях: Антонио Бандерас, Оливия Уильямс, Джон Шрэпнел, Дерек Джекоби, Джейсон Флеминг, Лиллиэн Люкс, Джон Вуд, Макрам Хури, Вернон Добчефф, Иэн МакНис, ...

О фильме: На рубеже веков в древней колыбели религии — Иерусалиме два абсолютно разных человека объединяют свои усилия в поисках истины и веры. Посланник Ватикана — святой отец Мэтт Гутьеррес и Шарон Голдбан — женщина-археолог из Израиля — исследуют невероятную находку. За маленьким неприметным магазинчиком на старой иерусалимской улочке Шарон обнаруживает древнюю гробницу с останками человека, подвергнутого распятию. Все признаки наводят ее на шокирующее открытие: древний скелет принадлежит Иисусу, сыну Иосифа. В столкновении с политиками, духовенством, религиозными фанатиками и экстремистами идет тяжелая борьба за поиск абсолютной истины…



Страна: США, Израиль, Германия
Продолжительность: 01:44:23
Перевод:
- Профессиональный (многоголосый, закадровый) R5 «Paradise/Twister»
- Авторский (одноголосый, закадровый) Живов Юрий Викторович

Кодек: x264
Качество: DVDRip-AVC
Видео: 1012x428, 3000 kbps, 25 fps
Аудио #1: AC-3, 6 ch, 384 kbps (Rus) - MVO R5 «Paradise/Twister»
Аудио #2: AC-3, 2 ch, 192 kbps (Rus) - AVO Живов Юрий Викторович
Аудио #3: AC-3, 6 ch, 384 kbps (Eng)
Субтитры: Русские, Английские

За исходник спасибо - cooman1
x264 [info]: frame I:1044 Avg QP:16.22 size: 62441
x264 [info]: frame P:30828 Avg QP:18.87 size: 28868
x264 [info]: frame B:124704 Avg QP:20.99 size: 11172
x264 [info]: consecutive B-frames: 1.1% 2.3% 5.6% 15.1% 22.5% 32.0% 9.7% 3.8% 2.4% 2.9% 0.8% 0.5% 1.4%
Общее
Уникальный идентификатор : 215165085513521489726534368647890740912 (0xA1DF49C2151B497F8792D23A02DA26B0)
Полное имя : Тело (The Body) 2001 DVDRip.mkv
Формат : Matroska
Версия формата : Version 2
Размер файла : 2,89 Гбайт
Продолжительность : 1 ч. 44 м.
Общий поток : 3962 Кбит/сек
Дата кодирования : UTC 2017-07-18 10:01:57
Программа кодирования : mkvmerge v4.0.0 ('The Stars were mine') сборка от Jun 6 2010 16:18:42
Библиотека кодирования : libebml v1.0.0 + libmatroska v1.0.0
Видео
Идентификатор : 1
Формат : AVC
Формат/Информация : Advanced Video Codec
Профиль формата : High@L4.1
Параметр CABAC формата : Да
Параметр ReFrames формата : 12 кадров
Идентификатор кодека : V_MPEG4/ISO/AVC
Продолжительность : 1 ч. 44 м.
Битрейт : 3000 Кбит/сек
Ширина : 1012 пикселей
Высота : 428 пикселей
Соотношение сторон : 2,35:1
Режим частоты кадров : Постоянный
Частота кадров : 25,000 кадров/сек
Цветовое пространство : YUV
Субдискретизация насыщенности : 4:2:0
Битовая глубина : 8 бит
Тип развёртки : Прогрессивная
Бит/(Пиксели*Кадры) : 0.277
Размер потока : 2,13 Гбайт (74%)
Библиотека кодирования : x264 core 146 r2538 121396c
Настройки программы : cabac=1 / ref=12 / deblock=1:-3:-3 / analyse=0x3:0x133 / me=umh / subme=11 / psy=1 / psy_rd=1.00:0.00 / mixed_ref=1 / me_range=32 / chroma_me=1 / trellis=2 / 8x8dct=1 / cqm=0 / deadzone=21,11 / fast_pskip=0 / chroma_qp_offset=-2 / threads=12 / lookahead_threads=2 / sliced_threads=0 / nr=0 / decimate=0 / interlaced=0 / bluray_compat=0 / constrained_intra=0 / bframes=12 / b_pyramid=2 / b_adapt=2 / b_bias=0 / direct=3 / weightb=1 / open_gop=0 / weightp=2 / keyint=250 / keyint_min=25 / scenecut=40 / intra_refresh=0 / rc=2pass / mbtree=0 / bitrate=3000 / ratetol=1.0 / qcomp=0.60 / qpmin=0 / qpmax=69 / qpstep=4 / cplxblur=20.0 / qblur=0.5 / ip_ratio=1.40 / pb_ratio=1.30 / aq=1:0.80
Язык : English
Default : Нет
Forced : Нет
Аудио #1
Идентификатор : 2
Формат : AC-3
Формат/Информация : Audio Coding 3
Расширение режима : CM (complete main)
Параметр Endianness формата : Big
Идентификатор кодека : A_AC3
Продолжительность : 1 ч. 44 м.
Вид битрейта : Постоянный
Битрейт : 384 Кбит/сек
Каналы : 6 каналов
Расположение каналов : Front: L C R, Side: L R, LFE
Частота : 48,0 КГц
Частота кадров : 31,250 кадров/сек (1536 spf)
Метод сжатия : С потерями
Размер потока : 287 Мбайт (10%)
Заголовок : MVO R5 «Paradise/Twister»
Язык : Russian
Default : Нет
Forced : Нет
Аудио #2
Идентификатор : 3
Формат : AC-3
Формат/Информация : Audio Coding 3
Расширение режима : CM (complete main)
Параметр Endianness формата : Big
Идентификатор кодека : A_AC3
Продолжительность : 1 ч. 44 м.
Вид битрейта : Постоянный
Битрейт : 192 Кбит/сек
Каналы : 2 канала
Расположение каналов : Front: L R
Частота : 48,0 КГц
Частота кадров : 31,250 кадров/сек (1536 spf)
Метод сжатия : С потерями
Размер потока : 143 Мбайт (5%)
Заголовок : AVO Живов Юрий Викторович
Язык : Russian
Default : Нет
Forced : Нет
Аудио #3
Идентификатор : 4
Формат : AC-3
Формат/Информация : Audio Coding 3
Расширение режима : CM (complete main)
Параметр Endianness формата : Big
Идентификатор кодека : A_AC3
Продолжительность : 1 ч. 44 м.
Вид битрейта : Постоянный
Битрейт : 384 Кбит/сек
Каналы : 6 каналов
Расположение каналов : Front: L C R, Side: L R, LFE
Частота : 48,0 КГц
Частота кадров : 31,250 кадров/сек (1536 spf)
Метод сжатия : С потерями
Размер потока : 287 Мбайт (10%)
Язык : English
Default : Нет
Forced : Нет
Текст #1
Идентификатор : 5
Формат : UTF-8
Идентификатор кодека : S_TEXT/UTF8
Идентификатор кодека/Информация : UTF-8 Plain Text
Язык : Russian
Default : Нет
Forced : Нет
Текст #2
Идентификатор : 6
Формат : UTF-8
Идентификатор кодека : S_TEXT/UTF8
Идентификатор кодека/Информация : UTF-8 Plain Text
Язык : English
Default : Нет
Forced : Нет



_________________
Проголосуй за трекер Открытый торрент трекер - RUS-MEDIA.ORG

Проголосуй Открытый торрент трекер - RUS-MEDIA.ORG



реклама партнёра


Вернуться к началу
 Профиль Отправить личное сообщение  
 
   Похожие торренты   Автор   Торрент   Размер 
В этой теме нет новых непрочитанных сообщений. Подставное тело / Body Double [Триллер, драма, криминал, детектив, 1984] BDRip 720p, Mvo+4avo+Sub

salma3

2 | 0

7.22 ГБ

В этой теме нет новых непрочитанных сообщений. Тело / Body [триллер, 2015] HDRip, Avo

salma3

57 | 4

733.56 МБ

В этой теме нет новых непрочитанных сообщений. Расчлененное тело / Body Parts [ужасы, триллер, 1991] HDTV 1080i, Mvo

salma3

25 | 10

2.78 ГБ

В этой теме нет новых непрочитанных сообщений. Расплавленное тело / Body Melt [фантастика, ужасы, комедия, 1993] HDRip-AVC, Avo

salma3

33 | 2

744.2 МБ

В этой теме нет новых непрочитанных сообщений. Расплавленное тело / Body Melt [фантастика, ужасы, комедия, 1993] BDRip 1080p, Avo

salma3

46 | 19

7.4 ГБ

В этой теме нет новых непрочитанных сообщений. Глаза ангела / Angel Eyes [Мелодрама, триллер, драма, 2001] DVDRip-AVC, Mvo+Dvo

salma3

183 | 9

1.86 ГБ

В этой теме нет новых непрочитанных сообщений. Влияние тела / Body of Influence [драма, триллер, 1993] DVDRip, Avo

salma3

129 | 8

1.46 ГБ


Начать новую тему Ответить на тему  [ 1 сообщение ] 




Для Мосгорсуда, Роскомнадзора и рекламодателей:: mosgorsud-torrent[собачка]yandex.ru