Торрент файл
скачать торрент магнет ссылка Добавлен: 18 июл 2017, 11:41
Размер: 744.66 МБ
Сидеров: 11
Личеров: 3
Статус: (salma3)
Автор

СообщениеДобавлено: 18 июл 2017, 11:41 

Не в сети
Супермодератор
Аватара пользователя
Дата регистрации:
15 фев 2012, 16:44
Возраст: 28
Спасибо: 6471 / 2129
Сообщения: 40974
Год выхода: 1996
Жанр: ужасы, детектив
Режиссер: Уэс Крэйвен

В ролях: Нив Кэмпбелл, Кортни Кокс, Дэвид Аркетт, Скит Ульрих, Мэттью Лиллард, Джейми Кеннеди, Роуз МакГоун, Лоуренс Хехт, Дрю Бэрримор, У. Эрл Браун

О фильме:
По городу прокатилась волна жестоких убийств, жертвами становятся беззащитные люди. Новой жертвой телефонного маньяка из городка Вудсборо может стать ещё одна девушка — Сидни Прескотт. Год назад у неё была изнасилована и убита мать, теперь маньяк угрожает ей самой. Но в первой ночной схватке с убийцей, девушка смогла спастись. Полиция находит на месте покушения маску и плащ. Впрочем, такие маски можно купить в лавке ужасов, и проку для следствия от найденных улик нет никакого. Нет, вроде, и мотивов для убийств, если только не принять за главную версию, что маньяк — страстный поклонник фильмов ужасов и убивает свои жертвы только ради удовольствия…



Страна: США
Продолжительность: 01:50:56
Перевод: Профессиональный (двухголосый закадровый)

Файл
Кодек: AVC
Качество: HDRip-AVC
Видео: 752x320, 865 kbps, 23,976 fps, 0,150 Bits/(Pixel*Frame)
Звук: AAC, 48 kHz, 2 ch, 72 kbps
Субтитры: русские

Общее
Unique ID : 198867645208862084021193676931115396663 (0x959C83E9E5ECB7C9AFFA17E02E062E37)
Complete name : E:Scream.1996.HDRip-AVC_by_Bathory.mkv
Format : Matroska
Format version : Version 4 / Version 2
File size : 745 Мбайт
Duration : 1 ч. 50 м.
Overall bit rate : 938 Кбит/сек
Encoded date : UTC 2017-07-17 17:45:43
Writing application : mkvmerge v13.0.0 ('The Juggler') 64bit
Writing library : libebml v1.3.4 + libmatroska v1.4.5
Видео
ID : 1
Format : AVC
Format/Info : Advanced Video Codec
Format profile : High@L4.1
Format settings, CABAC : Да
Format settings, ReFrames : 10 кадров
Codec ID : V_MPEG4/ISO/AVC
Duration : 1 ч. 50 м.
Bit rate : 865 Кбит/сек
Width : 752 пикселя
Height : 320 пикселей
Display aspect ratio : 2,35:1
Frame rate mode : Постоянный
Frame rate : 23,976 (23976/1000) кадра/сек
Original frame rate : 23,976 (24000/1001) кадра/сек
Color space : YUV
Chroma subsampling : 4:2:0
Bit depth : 8 бит
Scan type : Прогрессивная
Bits/(Pixel*Frame) : 0.150
Stream size : 686 Мбайт (92%)
Writing library : x264 core 148 r2744 b97ae06
Encoding settings : cabac=1 / ref=10 / deblock=1:-2:-2 / analyse=0x3:0x113 / me=umh / subme=11 / psy=1 / psy_rd=1.00:0.10 / mixed_ref=1 / me_range=32 / chroma_me=1 / trellis=2 / 8x8dct=1 / cqm=0 / deadzone=21,11 / fast_pskip=0 / chroma_qp_offset=-3 / threads=10 / lookahead_threads=2 / sliced_threads=0 / nr=0 / decimate=1 / interlaced=0 / bluray_compat=0 / constrained_intra=0 / bframes=10 / b_pyramid=2 / b_adapt=2 / b_bias=0 / direct=3 / weightb=1 / open_gop=0 / weightp=2 / keyint=240 / keyint_min=24 / scenecut=40 / intra_refresh=0 / rc_lookahead=60 / rc=2pass / mbtree=1 / bitrate=865 / ratetol=1.0 / qcomp=0.60 / qpmin=0 / qpmax=69 / qpstep=4 / cplxblur=20.0 / qblur=0.5 / ip_ratio=1.40 / aq=1:1.00
Default : Да
Forced : Нет
Аудио
ID : 2
Format : AAC
Format/Info : Advanced Audio Codec
Format profile : HE-AAC / LC
Codec ID : A_AAC
Duration : 1 ч. 50 м.
Bit rate : 72,0 Кбит/сек
Channel(s) : 2 канала
Channel positions : Front: L R
Sampling rate : 48,0 КГц / 24,0 КГц
Frame rate : 23,438 кадра/сек (1024 spf)
Compression mode : С потерями
Delay relative to video : 31 мс.
Stream size : 57,1 Мбайт (8%)
Language : Russian
Default : Да
Forced : Нет
Текст
ID : 3
Format : UTF-8
Codec ID : S_TEXT/UTF8
Codec ID/Info : UTF-8 Plain Text
Duration : 1 ч. 45 м.
Bit rate : 97 бит/сек
Count of elements : 1410
Stream size : 75,7 Кбайт (0%)
Language : Russian
Default : Нет
Forced : Нет

Релиз от:


_________________
Проголосуй за трекер Открытый торрент трекер - RUS-MEDIA.ORG

Проголосуй Открытый торрент трекер - RUS-MEDIA.ORG



реклама партнёра


Вернуться к началу
 Профиль Отправить личное сообщение  
 
   Похожие торренты   Автор   Торрент   Размер 
В этой теме нет новых непрочитанных сообщений. Крик. Квадрология / Scream. Quadrilogy (Уэс Крэйвен) [1996, 1997, 1999, 2011, ужасы, триллер, детектив, BDRip]

Dracon

19 | 1

5.47 ГБ

В этой теме нет новых непрочитанных сообщений. Крик 4 / Scream 4 [ужасы, детектив, 2011] HDRip-AVC, Dub

salma3

33 | 12

744.99 МБ

В этой теме нет новых непрочитанных сообщений. Крик 2 / Scream 2 [ ужасы, детектив, 1997] HDRip-AVC, Dub

salma3

9 | 4

744.44 МБ

В этой теме нет новых непрочитанных сообщений. Крик / Scream [ужасы, триллер, криминал, 1996] BDRip-HEVC 1080p, Dvo

salma3

28 | 24

5.55 ГБ

В этой теме нет новых непрочитанных сообщений. Крик и снова крик / Scream and Scream Again [фантастика, триллер, криминал, 1970] HDTVRip, Dvo [НТВ+]

salma3

39 | 3

1.37 ГБ

В этой теме нет новых непрочитанных сообщений. Крик 3 / Scream 3 [ужасы, детектив, 2000] BDRip-HEVC 1080p, Dub

salma3

27 | 10

5.92 ГБ

В этой теме нет новых непрочитанных сообщений. Крик 2 / Scream 2 [ужасы, детектив, 1997] BDRip-HEVC 1080p, Dub

salma3

16 | 5

5.38 ГБ


Начать новую тему Ответить на тему  [ 1 сообщение ] 




Для Мосгорсуда, Роскомнадзора и рекламодателей:: mosgorsud-torrent[собачка]yandex.ru